Поиск

2015 Christian Scott aTunde Adjuah - Stretch Music (2019) {Ropeadope, Stretch Music} [24-88,2]

2015 Christian Scott aTunde Adjuah - Stretch Music (2019) {Ropeadope, Stretch Music} [24-88,2]
Издатель (лейбл):
Треклист:

01. Sunrise in Beijing (Feat. Elena Pinderhughes) 05:04
02. TWIN 04:15
03. Perspectives 04:22
04. West of the West 08:07
05. Liberation over Gangsterism (Feat. Elena Pinderhughes) 04:09
06. The Corner (Feat. Braxton Cook) 01:34
07. Of a New Cool 07:34
08. Runnin 7's 02:07
09. Tantric 04:24
10. The Last Chieftain (Feat. Matthew Stevens) 07:11
11. The Horizon 02:10

Доп. инфо:

Формат записи/Источник записи: [TR24][OF]
Наличие водяных знаков: Нет
Год издания/переиздания диска: 2015/2019
Жанр: contemporary jazz, post-bop, modern creative, trumpet jazz, world fusion
Издатель (лейбл): Ropeadope / Stretch Music
Продолжительность: 00:51:01
Наличие сканов в содержимом раздачи: Да (сканы)
Источник (релизер): qobuz

Контейнер: FLAC (*.flac)
Тип рипа: tracks
Разрядность: 24/88,2
Формат: PCM
Количество каналов: 2.0

 

Лог проверки качества
foobar2000 1.1.15 / Dynamic Range Meter 1.1.1
log date: 2020-01-16 16:24:43

--------------------------------------------------------------------------------
Analyzed: Christian Scott / Stretch Music
--------------------------------------------------------------------------------

DR         Peak         RMS     Duration Track
--------------------------------------------------------------------------------
DR5       -0.04 dB    -6.44 dB      5:04 01-Sunrise in Beijing (Feat. Elena Pinderhughes)
DR5       -0.04 dB    -6.23 dB      4:15 02-TWIN
DR7       -0.04 dB    -9.03 dB      4:22 03-Perspectives
DR6       -0.04 dB    -8.39 dB      8:08 04-West of the West
DR5       -0.04 dB    -8.54 dB      4:10 05-Liberation over Gangsterism (Feat. Elena Pinderhughes)
DR5       -0.34 dB    -7.06 dB      1:34 06-The Corner (Feat. Braxton Cook)
DR6       -0.04 dB    -7.50 dB      7:34 07-Of a New Cool
DR7       -0.04 dB    -9.21 dB      2:07 08-Runnin 7's
DR5       -2.54 dB   -10.14 dB      4:24 09-Tantric
DR6       -0.04 dB    -8.19 dB      7:12 10-The Last Chieftain (Feat. Matthew Stevens)
DR6       -0.04 dB    -8.30 dB      2:10 11-The Horizon
--------------------------------------------------------------------------------

Number of tracks:  11
Official DR value: DR6

Samplerate:        88200 Hz
Channels:          2
Bits per sample:   24
Bitrate:           2899 kbps
Codec:             FLAC
================================================================================
Приватный:
Нет (DHT включён)
Размер:
1.12 Гб (1,200,086,410 байт) » файлов: 21
Участники:
0 раздают, 0 качают (0 участников всего)
Внешние участники:
8 раздают, 2 качают (10 участников всего) [ Обновить ]
Есть вопросы - пишите личное сообщение пользователю M0p94ok.
10:29
18
Нет комментариев. Ваш будет первым!