Поиск

2018 François Richard Quartet - Libération {Effendi} [24-88,2]

2018 François Richard Quartet - Libération {Effendi} [24-88,2]
Стили:
Место записи:
Studio 270, Montréal, Québec, Canada
Носитель:
WEB
Формат:
PCM
Тип рипа:
tracks
Контейнер:
FLAC (*.flac)
Количество каналов:
2.0
Разрядность/ЧД:
24/88,2
Формат записи/Источник записи:
[TR24][OF]
Время звучания:
00:41:53
Наличие сканов:
буклет pdf
Наличие водяных знаков:
нет
Страна-производитель диска (релиза):
Canada
Релизёр (источник):
M0p94ok

Треклист:

1. Ponctuation  05:06
2. Winter Blues  05:16
3. Libération  06:28
4. Une tempête  06:22
5. De 7 à 8  04:16
6. Dark Waltz  04:51
7. La Bossa à Casanova  05:14
8. Ballade 2017  04:20

Лог проверки качества
foobar2000 1.3.16 / Dynamic Range Meter 1.1.1
log date: 2018-11-27 21:56:00

--------------------------------------------------------------------------------
Analyzed: François Richard Quartet / Libération
--------------------------------------------------------------------------------

DR         Peak         RMS     Duration Track
--------------------------------------------------------------------------------
DR11      -0.25 dB   -13.44 dB      5:07 01-Ponctuation
DR11      -0.25 dB   -13.11 dB      5:17 02-Winter Blues
DR11      -0.25 dB   -13.91 dB      6:28 03-Liberation
DR11      -0.25 dB   -13.11 dB      6:22 04-Une Tempete
DR11      -0.25 dB   -12.85 dB      4:17 05-De 7 a 8
DR12      -0.25 dB   -14.25 dB      4:51 06-Dark Waltz
DR11      -0.25 dB   -13.02 dB      5:15 07-La Bossa a Casa Nova
DR10      -0.25 dB   -13.94 dB      4:20 08-Balade 2017
--------------------------------------------------------------------------------

Number of tracks:  8
Official DR value: DR11

Samplerate:        88200 Hz
Channels:          2
Bits per sample:   24
Bitrate:           2629 kbps
Codec:             FLAC
================================================================================
Приватный:
Нет (DHT включён)
Размер:
802.95 Мб (841,950,577 байт) » файлов: 11
Участники:
5 раздают, 0 качают (5 участников всего)
Внешние участники:
--- [ Обновить ]
Есть вопросы - пишите личное сообщение пользователю M0p94ok.
13:07
26
Нет комментариев. Ваш будет первым!