Поиск

2017 Christian Scott aTunde Adjuah - Diaspora (2019) {Ropeadope, Stretch Music} [24-88,2]

2017 Christian Scott aTunde Adjuah - Diaspora (2019) {Ropeadope, Stretch Music} [24-88,2]
Треклист:

01. Diaspora [Feat. Elena Pinderhughes] 04:57
02. IDK [Feat. Braxton Cook] 04:17
03. Our Lady of New Orleans (Herreast Harrison) 03:44
04. Bae (Interlude) [Feat. Lawrence Fields] 02:11
05. Desire and the Burning Girl 05:35
06. Uncrown Her 03:52
07. Lawless [Feat. Braxton Cook] 03:59
08. Completely [Feat. Elena Pinderhughes] 06:18
09. New Jack Bounce (Interlude) 03:00
10. No Love 06:10
11. The Walk [Feat. Sarah Elizabeth Charles] 05:19

Доп. инфо:

Формат записи/Источник записи: [TR24][OF]
Наличие водяных знаков: Нет
Год издания/переиздания диска: 2017/2019
Издатель (лейбл): Ropeadope / Stretch Music
Продолжительность: 00:49:28
Наличие сканов в содержимом раздачи: Да (сканы)
Источник (релизер): qobuz

Контейнер: FLAC (*.flac)
Тип рипа: tracks
Разрядность: 24/88,2
Формат: PCM
Количество каналов: 2.0

Доп. информация: http://www.christianscott.tv/

Лог проверки качества
foobar2000 1.1.15 / Dynamic Range Meter 1.1.1
log date: 2020-01-16 12:33:59

--------------------------------------------------------------------------------
Analyzed: Christian Scott aTunde Adjuah / Diaspora
--------------------------------------------------------------------------------

DR         Peak         RMS     Duration Track
--------------------------------------------------------------------------------
DR4       -1.52 dB    -7.25 dB      4:57 01-Diaspora
DR5       -1.52 dB    -9.25 dB      4:18 02-IDK
DR6       -1.52 dB    -8.58 dB      3:44 03-Our Lady of New Orleans (Herreast Harrison)
DR6       -1.52 dB   -10.12 dB      2:11 04-Bae (Interlude)
DR4       -1.52 dB    -6.21 dB      5:36 05-Desire and the Burning Girl
DR5       -1.52 dB    -8.67 dB      3:53 06-Uncrown Her
DR5       -1.52 dB    -8.29 dB      4:00 07-Lawless
DR6       -1.52 dB   -10.32 dB      6:19 08-Completely
DR3       -1.52 dB    -6.30 dB      3:00 09-New Jack Bounce (Interlude)
DR7       -1.52 dB   -10.22 dB      6:10 10-No Love
DR6       -1.52 dB    -9.27 dB      5:19 11-The Walk
--------------------------------------------------------------------------------

Number of tracks:  11
Official DR value: DR5

Samplerate:        88200 Hz
Channels:          2
Bits per sample:   24
Bitrate:           2656 kbps
Codec:             FLAC
================================================================================
Приватный:
Нет (DHT включён)
Размер:
945.15 Мб (991,057,809 байт) » файлов: 19
Участники:
0 раздают, 1 качают (1 участников всего)
Внешние участники:
9 раздают, 3 качают (12 участников всего) [ Обновить ]
Скорость:
2.01 Мб/c 0/c
Есть вопросы - пишите личное сообщение пользователю M0p94ok.
12:31
23
Нет комментариев. Ваш будет первым!