Поиск

2018 Joshua Alan Silver - Songs For Solomon {Godfrey} [24-96]

2018 Joshua Alan Silver - Songs For Solomon {Godfrey} [24-96]
Носитель:
WEB
Формат:
PCM
Тип рипа:
tracks
Контейнер:
FLAC (*.flac)
Количество каналов:
2.0
Разрядность/ЧД:
24/96
Формат записи/Источник записи:
[TR24][OF]
Время звучания:
00:15:54
Наличие сканов:
только обложка
Наличие водяных знаков:
нет
Релизёр (источник):
M0p94ok
Треклист:

01. The Beginning  04:24
02. Simplicity  02:54
03. Jubilation Rag  03:34
04. Dream, Wish, and Believe  02:44
05. Shalom RavYoed Nir  02:15

Лог проверки качества
foobar2000 1.3.16 / Dynamic Range Meter 1.1.1
log date: 2018-07-26 13:45:25

--------------------------------------------------------------------------------
Analyzed: Joshua Alan Silver / Songs for Solomon
--------------------------------------------------------------------------------

DR         Peak         RMS     Duration Track
--------------------------------------------------------------------------------
DR13      -0.30 dB   -16.12 dB      4:25 01-The Beginning
DR12      -1.27 dB   -16.53 dB      2:55 02-Simplicity
DR13      -0.30 dB   -15.89 dB      3:34 03-Jubilation Rag
DR12      -0.61 dB   -16.26 dB      2:44 04-Dream, Wish, and Believe
DR9       -1.63 dB   -14.27 dB      2:15 05-Shalom Rav
--------------------------------------------------------------------------------

Number of tracks:  5
Official DR value: DR12

Samplerate:        96000 Hz
Channels:          2
Bits per sample:   24
Bitrate:           2114 kbps
Codec:             FLAC
================================================================================
Приватный:
Нет (DHT включён)
Размер:
228.89 Мб (240,009,478 байт) » файлов: 7
Участники:
5 раздают, 0 качают (5 участников всего)
Внешние участники:
--- [ Обновить ]
Есть вопросы - пишите личное сообщение пользователю M0p94ok.
14:04
29
Нет комментариев. Ваш будет первым!