Поиск

2020 Freddie Hubbard - At Onkel Pö´s Carnegie Hall, Hamburg 1979 {Delta Music} [24-44.1]

2020 Freddie Hubbard - At Onkel Pö´s Carnegie Hall, Hamburg 1979 {Delta Music} [24-44.1]
Стили:
Дата записи диска:
11 ноября 1978
Место записи:
Onkel Pö's Carnegie Hall, Hamburg, Germany
Номер по каталогу:
N 77044
Носитель:
WEB
Формат:
PCM
Тип рипа:
tracks
Контейнер:
FLAC (*.flac)
Количество каналов:
2.0
Разрядность/ЧД:
24/44,1
Битрейт аудио:
lossless
Время звучания:
01:17:00
Наличие сканов:
только обложка
Треклист:

01 - Love Connection 10:01
02 - Little Sunflower 18:44
03 - Take It to the Ozone 09:26
04 - Here's That Rainy Day 09:01
05 - Blues for Duane 04:15
06 - One of a Kind 25:33

Состав:
  • Freddie Hubbard, trumpet, flugelhorn
  • Hadley Caliman, saxophone, flute
  • Larry Klein, bass
  • Carl Burnett, drums
  • Billy Childs, piano
Лог проверки качества
foobar2000 1.3.7 / Dynamic Range Meter 1.1.1
log date: 2020-01-30 23:20:42

--------------------------------------------------------------------------------
Analyzed: Freddie Hubbard Quintet / At Onkel Pö´s Carnegie Hall, Hamburg 1979 (Remastered)
--------------------------------------------------------------------------------

DR         Peak         RMS     Duration Track
--------------------------------------------------------------------------------
DR9       -0.22 dB   -10.91 dB     10:01 01-Love Connection
DR8       -0.25 dB   -11.71 dB     18:44 02-Little Sunflower
DR7       -0.32 dB    -9.42 dB      9:27 03-Take It to the Ozone
DR14      -0.37 dB   -19.17 dB      9:02 04-Here's That Rainy Day
DR8       -0.29 dB   -10.40 dB      4:16 05-Blues for Duane
DR8       -0.30 dB   -10.59 dB     25:34 06-One of a Kind
--------------------------------------------------------------------------------

Number of tracks:  6
Official DR value: DR9

Samplerate:        44100 Hz
Channels:          2
Bits per sample:   24
Bitrate:           1588 kbps
Codec:             FLAC
================================================================================
По всем вопросам пишите личное сообщение пользователю M0p94ok.
18:56
217
Нет комментариев. Ваш будет первым!