Поиск

1956 George Shearing and Red Norvo - Midnight On Cloud 69 (2019) {RevOla} [24-44.1]

1956 George Shearing and Red Norvo - Midnight On Cloud 69 (2019) {RevOla} [24-44.1]
Стили:
Дата записи диска:
31 января 1949, 13 октября 1950, 13 апреля 1951, 3 мая 1950
Дата переиздания диска:
22 октября 2019
Издатель (лейбл):
Носитель:
WEB
Формат:
PCM
Тип рипа:
tracks
Контейнер:
FLAC (*.flac)
Количество каналов:
2.0
Разрядность/ЧД:
24/44,1
Битрейт аудио:
lossless
Время звучания:
00:38:43
Наличие сканов:
только обложка

01 - Sorry, Wrong Rumba! 03:21
02 - Cotton Top 02:50
03 - Be Bop's Fables 03:04
04 -Midnight On Cloud 69 03:10
05 - Little White Lies 03:50
06 - I'm Yours 04:11
07 - Moon Over Miami 03:13
08 - Cherokee 02:44
09 - Life With Feather 03:11
10 - Four Bars Short 02:24
11 - Time And Tide 02:37
12 - Night And Day 04:08

Состав:
  • Bass – Charles Mingus (треков: 5, 6, 11, 12), John Levy (треков: 1 to 4, 7 to 10)
  • Drums – Denzil Best (треков: 1 to 4, 7 to 10)
  • Engineer [Mastering] – R. Van Gelder*
  • Guitar – Chuck Wayne (треков: 1 to 4, 7 to 10), Tal Farlow (треков: 5, 6, 11, 12)
  • Liner Notes – Jack Mc Kinney*
  • Piano – George Shearing (треков: 1 to 4, 7 to 10)
  • Producer [Production] – Ozzie Cadena
  • Vibraphone – Marjorie Hyams (треков: 1 to 4, 7 to 10), Red Norvo (треков: 5, 6, 11, 12)

Заметки
1 to 4 & 7 to 10 recorded January 31, 1949
5 recorded October 13, 1950
6 recorded April 13, 1951
11 & 12 recorded May 3, 1950

Лог проверки качества
foobar2000 1.4.3 / Dynamic Range Meter 1.1.1
log date: 2021-07-04 00:47:44

--------------------------------------------------------------------------------
Analyzed: George Shearing / Midnight On Cloud 69 (1949-51)
--------------------------------------------------------------------------------

DR         Peak         RMS     Duration Track
--------------------------------------------------------------------------------
DR11      -2.39 dB   -16.13 dB      3:22 01-Sorry, Wrong Rumba! (Remastered)
DR10      -3.36 dB   -15.20 dB      2:50 02-Cotton Top (Remastered)
DR11      -1.99 dB   -15.55 dB      3:05 03-Be Bop's Fables (Remastered)
DR11      -2.91 dB   -16.27 dB      3:10 04-Midnight On Cloud 69 (Remastered)
DR11      -2.50 dB   -15.79 dB      3:50 05-Little White Lies (Remastered)
DR11      -0.76 dB   -15.13 dB      4:11 06-I'm Yours (Remastered)
DR12      -1.45 dB   -14.85 dB      3:13 07-Moon Over Miami (Remastered)
DR12      -0.50 dB   -14.41 dB      2:44 08-Cherokee (Remastered)
DR10      -1.54 dB   -13.96 dB      3:11 09-Life With Feather (Remastered)
DR12      -0.92 dB   -14.37 dB      2:25 10-Four Bars Short (Remastered)
DR12      -2.06 dB   -16.04 dB      2:38 11-Time And Tide (Remastered)
DR12      -1.93 dB   -15.98 dB      4:09 12-Night And Day (Remastered)
--------------------------------------------------------------------------------

Number of tracks:  12
Official DR value: DR11

Samplerate:        44100 Hz
Channels:          2
Bits per sample:   24
Bitrate:           1171 kbps
Codec:             FLAC
================================================================================
Приватный:
Нет (DHT включён)
Размер:
335.69 Мб (351,996,051 байт) » файлов: 17
Участники:
2 раздают, 1 качают (3 участников всего)
Внешние участники:
5 раздают, 1 качают (6 участников всего) [ Обновить ]
12:49
624
Нет комментариев. Ваш будет первым!