Поиск

2020 Wayne Escoffery - The Humble Warrior {Smoke Sessions} [24-96]

2020 Wayne Escoffery - The Humble Warrior {Smoke Sessions} [24-96]
Стили:
Дата издания диска:
10 апреля 2020
Издатель (лейбл):
Номер по каталогу:
SSR 2002
Носитель:
WEB
Формат:
PCM
Тип рипа:
tracks
Контейнер:
FLAC (*.flac)
Количество каналов:
2.0
Разрядность/ЧД:
24/96
Битрейт аудио:
lossless
Наличие сканов:
только обложка

01. Chain Gang  06:46
02. Kyrie  09:31
03. Sanctus  07:21
04. Benedictus  05:04
05. Sanctus (Reprise)  00:53
06. The Humble Warrior  08:54
07. Quarter Moon  07:00
08. Undefined  06:34
09. AKA Reggie  05:17
10. Back to Square One  05:44

Состав:
  • Wayne Escoffery (ts)
  • David Kikoski (p)
  • Ugonna Okegwo (b)
  • Ralph Peterson (ds)
  • Special Guests
  • Randy Brecker (tp)
  • David Gilmore (g)
Лог проверки качества
foobar2000 1.6.2 / Dynamic Range Meter 1.1.1
log date: 2021-12-19 11:22:13

--------------------------------------------------------------------------------
Analyzed: Wayne Escoffery / The Humble Warrior
--------------------------------------------------------------------------------

DR         Peak         RMS     Duration Track
--------------------------------------------------------------------------------
DR10      -1.10 dB   -12.20 dB      6:46 01-Chain Gang
DR11      -1.10 dB   -14.50 dB      9:32 02-Kyrie
DR10      -1.10 dB   -13.28 dB      7:22 03-Sanctus
DR11      -1.10 dB   -14.64 dB      5:05 04-Benedictus
DR10      -1.10 dB   -13.20 dB      0:54 05-Sanctus (Reprise)
DR11      -1.10 dB   -15.00 dB      8:54 06-The Humble Warrior
DR13      -1.10 dB   -16.70 dB      7:01 07-Quarter Moon
DR13      -1.10 dB   -17.44 dB      6:35 08-Undefined
DR14      -1.10 dB   -18.15 dB      5:17 09-AKA Reggie
DR10      -1.10 dB   -12.37 dB      5:45 10-Back to Square One
--------------------------------------------------------------------------------

Number of tracks:  10
Official DR value: DR11

Samplerate:        96000 Hz
Channels:          2
Bits per sample:   24
Bitrate:           2918 kbps
Codec:             FLAC
================================================================================
Приватный:
Да (DHT отключён)
Размер:
1.23 Гб (1,318,767,510 байт) » файлов: 12
Участники:
0 раздают, 0 качают (0 участников всего)
Внешние участники:
--- [ Обновить ]
12:16
648
Нет комментариев. Ваш будет первым!