Поиск

2020 Ebi Soda - Ugh {Tru Thoughts} [24-44.1]

2020 Ebi Soda - Ugh {Tru Thoughts} [24-44.1]
Дата издания диска:
22 мая 2020
Носитель:
WEB
Формат:
PCM
Тип рипа:
tracks
Контейнер:
FLAC (*.flac)
Количество каналов:
2.0
Разрядность/ЧД:
24/44,1
Битрейт аудио:
lossless
Время звучания:
00:41:49
Наличие сканов:
только обложка

Треклист:

◈ 01 - Ecchi (00:04:34)
◈ 02 - Mas the Orc (00:03:26)
◈ 03 - Zip Your Boots Up Lad (00:05:03)
◈ 04 - Run for President (00:03:09)
◈ 05 - Spooki (00:05:09)
◈ 06 - Keisha Billip (00:04:22)
◈ 07 - Playstation (00:03:20)
◈ 08 - Summer One (00:04:57)
◈ 09 - Something to Do in the Future (00:02:46)
◈ 10 - Meow Meow (00:04:59)

Состав:
  • Bass – Hari-Lee Evans
  • Drums – Sam Schlich-Davies
  • Engineer – Adam Bowers (треков: 5, 10), Tom Bacon (треков: 1-4, 6-9)
  • Guitar – Conor Knight
  • Keyboards – Hari-Lee Evans (треков: 2), Louis Jenkins
  • Mastered By – Mark Dobson (2)
  • Mixed By – VVilhelm
  • Producer – Conor Knight, VVilhelm
  • Trombone, Synth – VVilhelm
Лог проверки качества
foobar2000 1.4.2 / Dynamic Range Meter 1.1.1
log date: 2021-06-27 12:17:50

--------------------------------------------------------------------------------
Analyzed: Ebi Soda / Ugh
--------------------------------------------------------------------------------

DR         Peak         RMS     Duration Track
--------------------------------------------------------------------------------
DR9       -1.00 dB   -11.85 dB      4:35 01-Ecchi
DR7       -1.00 dB    -9.79 dB      3:26 02-Mas the Orc
DR7       -1.00 dB    -9.86 dB      5:03 03-Zip Your Boots Up Lad
DR8       -1.00 dB   -10.70 dB      3:10 04-Run for President
DR7       -1.00 dB   -10.12 dB      5:09 05-Spooki
DR5       -1.00 dB    -8.32 dB      4:23 06-Keisha Billip
DR8       -1.00 dB   -11.45 dB      3:20 07-Playstation
DR8       -1.00 dB   -10.94 dB      4:58 08-Summer One
DR7       -1.00 dB   -10.94 dB      2:46 09-Something to Do in the Future
DR6       -1.00 dB    -8.62 dB      5:00 10-Meow Meow
--------------------------------------------------------------------------------

Number of tracks:  10
Official DR value: DR7

Samplerate:        44100 Hz
Channels:          2
Bits per sample:   24
Bitrate:           1668 kbps
Codec:             FLAC
================================================================================
По всем вопросам пишите личное сообщение пользователю M0p94ok.
17:48
228
Нет комментариев. Ваш будет первым!