Поиск

1974 Calvin Keys - Proceed with Caution! {Black Jazz} [24-96]

1974 Calvin Keys - Proceed with Caution! {Black Jazz} [24-96]
Стили:
Дата издания диска:
7 апреля 1974
Номер по каталогу:
BJQD 18
Носитель:
WEB
Формат:
PCM
Тип рипа:
tracks
Контейнер:
FLAC (*.flac)
Количество каналов:
2.0
Разрядность/ЧД:
24/96
Битрейт аудио:
lossless
Время звучания:
00:49:20
Наличие сканов:
только обложка

Треклист:

1. Proceed With Caution  12:30
2. Trade Winds  04:29
3. Efflugence  07:58
4. Aunt Lovey  07:22
5. Renaissance  11:19
6. Night Cry  05:40

Состав:
  • Bass – Henry Franklin
  • Drums – Ndugu Leon Chancelor*
  • Electric Piano – Kirk Lightsey
  • Engineer – Jim Mooney
  • Executive-Producer – Gene Russell
  • Guitar – Calvin Keys
  • Percussion, Bongos, Other [Scrtasizem, Papali] – Owen Marshall
  • Tenor Saxophone, Soprano Saxophone, Flute – Charles Owens
  • Trumpet, Flugelhorn – Oscar Brashear
Лог проверки качества
foobar2000 1.6.2 / Dynamic Range Meter 1.1.1
log date: 2021-11-09 20:04:56

--------------------------------------------------------------------------------
Analyzed: Calvin Keys / Proceed with Caution!
--------------------------------------------------------------------------------

DR         Peak         RMS     Duration Track
--------------------------------------------------------------------------------
DR11      -1.22 dB   -14.41 dB     12:30 01-Proceed With Caution
DR11      -1.57 dB   -15.17 dB      4:29 02-Tradewinds
DR10      -1.22 dB   -13.83 dB      7:59 03-Efflugence
DR11      -1.28 dB   -13.39 dB      7:22 04-Aunt Lovey
DR11      -1.22 dB   -14.46 dB     11:20 05-Renaissance
DR12      -1.22 dB   -14.94 dB      5:40 06-Night Cry
--------------------------------------------------------------------------------

Number of tracks:  6
Official DR value: DR11

Samplerate:        96000 Hz
Channels:          2
Bits per sample:   24
Bitrate:           2681 kbps
Codec:             FLAC
================================================================================
По всем вопросам пишите личное сообщение пользователю M0p94ok.
20:14
229
Нет комментариев. Ваш будет первым!