Поиск

2018 David Ake - Humanities {Posi-Tone} [24-88.2]

2018 David Ake - Humanities {Posi-Tone} [24-88.2]
Стили:
Дата записи диска:
17 сентября 2017
Место записи:
Acoustic Recording, Prospect Heights, Brooklyn, NY
Дата издания диска:
16 марта 2018
Издатель (лейбл):
Номер по каталогу:
PR8180
Носитель:
CD
Формат:
PCM
Тип рипа:
tracks
Контейнер:
FLAC (*.flac)
Количество каналов:
2.0
Разрядность/ЧД:
24/88,2
Битрейт аудио:
lossless
Время звучания:
01:00:36
Наличие сканов:
только обложка

Треклист:

01 - Humanities (00:04:23)
02 - Hoofer (00:06:16)
03 - Groundwork (00:08:08)
04 - Ripple (00:05:39)
05 - You May Have Already Won (00:03:44)
06 - Drinking Song (00:04:11)
07 - The North (00:06:36)
08 - Stream (00:06:48)
09 - Resource Center (00:03:57)
10 - Narration (00:01:02)
11 - Rabble Rouser (00:04:52)
12 - Walter Cronkite (00:04:53)

Состав:
  • Bass – Drew Gress
  • Drums – Mark Ferber
  • Engineer – Nick O'Toole
  • Engineer [Assistant] – Michael Brorby
  • Guitar – Ben Monder
  • Piano – David Ake
  • Producer – Marc Free
  • Text By [Quote] – Joseph Campbell
  • Trumpet – Ralph Alessi
Лог проверки качества
foobar2000 1.4.2 / Dynamic Range Meter 1.1.1
log date: 2021-06-27 12:14:00

--------------------------------------------------------------------------------
Analyzed: David Ake / Humanities
--------------------------------------------------------------------------------

DR         Peak         RMS     Duration Track
--------------------------------------------------------------------------------
DR9       -0.98 dB   -12.61 dB      4:24 01-Humanities
DR8       -0.98 dB   -11.57 dB      6:17 02-Hoofer
DR7       -0.98 dB    -9.69 dB      8:08 03-Groundwork
DR8       -0.98 dB   -11.78 dB      5:40 04-Ripple
DR6       -0.98 dB    -9.01 dB      3:44 05-You May Have Already Won
DR7       -0.98 dB   -12.39 dB      4:11 06-Drinking Song
DR8       -0.98 dB   -11.05 dB      6:36 07-The North
DR7       -0.98 dB   -10.20 dB      6:49 08-Stream
DR7       -0.98 dB   -10.85 dB      3:58 09-Resource Center
DR12      -0.98 dB   -16.87 dB      1:02 10-Narration
DR7       -0.98 dB    -9.48 dB      4:53 11-Rabble Rouser
DR8       -0.98 dB   -12.33 dB      4:54 12-Walter Cronkite
--------------------------------------------------------------------------------

Number of tracks:  12
Official DR value: DR8

Samplerate:        88200 Hz
Channels:          2
Bits per sample:   24
Bitrate:           2624 kbps
Codec:             FLAC
================================================================================
По всем вопросам пишите личное сообщение пользователю M0p94ok.
19:43
248
Нет комментариев. Ваш будет первым!