Поиск

2019 Daniel Schläppi, Marc Copland - Alice's Wonderland {Catwalk} [24-96]

2019 Daniel Schläppi, Marc Copland - Alice's Wonderland {Catwalk} [24-96]
Дата записи диска:
18 декабря 2017
Место записи:
Bauer Studios, Ludwigsburg, Germany
Дата издания диска:
1 октября 2019
Номер по каталогу:
CW 190019-2
Носитель:
WEB
Формат:
PCM
Тип рипа:
tracks
Контейнер:
FLAC (*.flac)
Количество каналов:
2.0
Разрядность/ЧД:
24/96
Битрейт аудио:
lossless
Наличие сканов:
только обложка

1. Everything I Love  06:43
2. Day and Night  06:00
3. The Other Way Round  06:14
4. Alice's Wonderland  05:22
5. Some Day My Prince Will Come  04:16
6. Juno  05:10
7. Jade Visions  04:37
8. All of Me  05:33
9. Blue in Green (Live)  05:50

Состав:
  • Bass, Photography By [Cover], Producer [For Catwalk] – Daniel Schläppi
  • Mastered By – Nicolas Baillard
  • Mixed By – Gérard De Haro
  • Piano – Marc Copland
  • Recorded By – Philipp Heck
Лог проверки качества
foobar2000 1.6.2 / Dynamic Range Meter 1.1.1
log date: 2021-11-10 17:58:19

--------------------------------------------------------------------------------
Analyzed: Daniel Schläppi / Alice's Wonderland
--------------------------------------------------------------------------------

DR         Peak         RMS     Duration Track
--------------------------------------------------------------------------------
DR13      -1.65 dB   -18.68 dB      6:44 01-Everything I Love
DR13      -2.15 dB   -17.59 dB      6:00 02-Day and Night
DR15      -0.21 dB   -19.52 dB      6:14 03-The Other Way Round
DR14      -0.62 dB   -18.89 dB      5:22 04-Alice's Wonderland
DR13      -0.99 dB   -17.23 dB      4:17 05-Some Day My Prince Will Come
DR13      -1.80 dB   -18.18 dB      5:11 06-Juno
DR14      -1.40 dB   -20.23 dB      4:38 07-Jade Visions
DR13      -0.87 dB   -17.45 dB      5:33 08-All of Me
DR15      -0.25 dB   -20.54 dB      5:51 09-Blue in Green  (Live)
--------------------------------------------------------------------------------

Number of tracks:  9
Official DR value: DR14

Samplerate:        96000 Hz
Channels:          2
Bits per sample:   24
Bitrate:           2389 kbps
Codec:             FLAC
================================================================================
Скачивание доступно после регистрации!!
Приватный:
Нет (DHT включён)
Размер:
857.58 Мб (899,238,345 байт) » файлов: 11
Участники:
5 раздают, 0 качают (5 участников всего)
Внешние участники:
--- [ Обновить ]
19:10
513
Нет комментариев. Ваш будет первым!