Поиск

2017 Farnell Newton - Back to Earth {Posi-Tone} [24-88.2]

2017 Farnell Newton - Back to Earth {Posi-Tone} [24-88.2]
Стили:
Дата издания диска:
Dead Aunt Thelma's, Portland, Oregon, USA
Издатель (лейбл):
Номер по каталогу:
PR8169
Носитель:
WEB
Формат:
PCM
Тип рипа:
tracks
Контейнер:
FLAC (*.flac)
Количество каналов:
2.0
Разрядность/ЧД:
24/88,2
Битрейт аудио:
lossless
Время звучания:
00:56:36
Наличие сканов:
только обложка

Треклист:

01 - Transcendentals (00:07:20)
02 - Arietas (00:03:46)
03 - Crossing The Tracks (00:03:46)
04 - Back To Earth (00:05:55)
05 - The Roots (00:04:54)
06 - Redefining The Norm (00:05:32)
07 - El Gaucho (00:05:47)
08 - Road To The South (00:04:18)
09 - Gazillionaire (00:05:41)
10 - Open Your Mind (00:04:12)
11 - Sons Of The Sun (00:05:21)

Состав:
  • Bass – Dylan Sundstrom
  • Drums – Christopher Brown
  • Engineer – Nick O'Toole
  • Engineer [Assistant] – Mike Moore
  • Piano – Greg Goebel
  • Producer – Marc Free
  • Trombone – Kyle Molitor
Лог проверки качества
foobar2000 1.4.2 / Dynamic Range Meter 1.1.1
log date: 2021-06-27 12:25:57

--------------------------------------------------------------------------------
Analyzed: Farnell Newton / Back to Earth
--------------------------------------------------------------------------------

DR         Peak         RMS     Duration Track
--------------------------------------------------------------------------------
DR10      -0.97 dB   -13.02 dB      7:21 01-Transcendentals
DR8       -0.97 dB   -10.87 dB      3:46 02-Arietas
DR9       -0.97 dB   -12.72 dB      3:46 03-Crossing The Tracks
DR10      -0.97 dB   -13.55 dB      5:55 04-Back To Earth
DR9       -0.97 dB   -12.44 dB      4:55 05-The Roots
DR10      -0.97 dB   -12.25 dB      5:32 06-Redefining The Norm
DR10      -0.97 dB   -12.34 dB      5:47 07-El Gaucho
DR10      -0.97 dB   -12.65 dB      4:18 08-Road To The South
DR10      -0.97 dB   -13.07 dB      5:42 09-Gazillionaire
DR10      -0.97 dB   -13.75 dB      4:13 10-Open Your Mind
DR11      -0.97 dB   -14.07 dB      5:21 11-Sons Of The Sun
--------------------------------------------------------------------------------

Number of tracks:  11
Official DR value: DR10

Samplerate:        88200 Hz
Channels:          2
Bits per sample:   24
Bitrate:           2792 kbps
Codec:             FLAC
================================================================================
По всем вопросам пишите личное сообщение пользователю M0p94ok.
18:25
249
Нет комментариев. Ваш будет первым!