Поиск

1964 Earl Hines - On His Own: Solo Jazz Piano {Tradition} [24-44.1]

1964 Earl Hines - On His Own: Solo Jazz Piano {Tradition} [24-44.1]
Стили:
Дата издания диска:
18 сентября 1964
Носитель:
WEB
Формат:
PCM
Тип рипа:
tracks
Контейнер:
FLAC (*.flac)
Количество каналов:
2.0
Разрядность/ЧД:
24/44,1
Битрейт аудио:
lossless
Наличие сканов:
только обложка

1. Undecided  03:57
2. Fatha's Blues  05:05
3. A Sunday Kind Of Love  04:12
4. I've Found A New Baby  03:20
5. Squeeze Me  04:11
6. Tosca's Dance  03:16
7. Jim  03:29
8. Black Coffee  05:14
9. You Always Hurt The One You Love  03:21

Состав:
Лог проверки качества
foobar2000 1.6.2 / Dynamic Range Meter 1.1.1
log date: 2021-11-10 19:01:47

--------------------------------------------------------------------------------
Analyzed: Earl Hines / On His Own: Solo Jazz Piano
--------------------------------------------------------------------------------

DR         Peak         RMS     Duration Track
--------------------------------------------------------------------------------
DR11      -1.20 dB   -15.45 dB      3:58 01-Undecided
DR12      -1.20 dB   -15.81 dB      5:06 02-Fatha's Blues
DR12      -1.20 dB   -15.43 dB      4:13 03-A Sunday Kind Of Love
DR11      -1.20 dB   -14.61 dB      3:21 04-I've Found A New Baby
DR11      -1.20 dB   -15.66 dB      4:11 05-Squeeze Me
DR12      -1.20 dB   -15.30 dB      3:17 06-Tosca's Dance
DR12      -1.25 dB   -17.11 dB      3:30 07-Jim
DR13      -1.28 dB   -17.44 dB      5:14 08-Black Coffee
DR13      -1.20 dB   -16.44 dB      3:21 09-You Always Hurt The One You Love
--------------------------------------------------------------------------------

Number of tracks:  9
Official DR value: DR12

Samplerate:        44100 Hz
Channels:          2
Bits per sample:   24
Bitrate:           1197 kbps
Codec:             FLAC
================================================================================
Приватный:
Нет (DHT включён)
Размер:
314.98 Мб (330,279,954 байт) » файлов: 10
Участники:
3 раздают, 0 качают (3 участников всего)
Внешние участники:
--- [ Обновить ]
20:02
429
Нет комментариев. Ваш будет первым!