Поиск

2017 Jon Davis - Happy Juice {Posi-Tone} [24-88.2]

2017 Jon Davis - Happy Juice {Posi-Tone} [24-88.2]
Стили:
Дата записи диска:
7 января 2017
Место записи:
Acoustic Recording, Prospect Heights, Brooklyn, NY
Дата издания диска:
7 августа 2017
Издатель (лейбл):
Номер по каталогу:
PR8171
Носитель:
WEB
Формат:
PCM
Тип рипа:
tracks
Контейнер:
FLAC (*.flac)
Количество каналов:
2.0
Разрядность/ЧД:
24/88,2
Битрейт аудио:
lossless
Время звучания:
00:49:32
Наличие сканов:
только обложка

Треклист:

01 - Happy Juice (00:04:35)
02 - Slant Six (00:05:36)
03 - The Two Lonely People (00:03:37)
04 - As We Know (00:05:23)
05 - Tones For Joan's Bones (00:05:33)
06 - Bred On Red (00:05:48)
07 - Speak Like A Child (00:05:42)
08 - Search For Peace (00:03:58)
09 - Mostly Minor (00:05:10)
10 - Rainbow (00:04:06)

Состав:
  • Bass – Boris Kozlov
  • Drums – Mark Ferber
  • Engineer – Michael Brorby
  • Mixed By, Mastered By – Nick O'Toole
  • Piano, Liner Notes – Jon Davis
  • Producer – Marc Free
Лог проверки качества
foobar2000 1.4.2 / Dynamic Range Meter 1.1.1
log date: 2021-06-27 12:27:57

--------------------------------------------------------------------------------
Analyzed: Jon Davis / Happy Juice
--------------------------------------------------------------------------------

DR         Peak         RMS     Duration Track
--------------------------------------------------------------------------------
DR11      -0.97 dB   -13.13 dB      4:35 01-Happy Juice
DR10      -0.97 dB   -12.76 dB      5:36 02-Slant Six
DR12      -0.97 dB   -16.46 dB      3:38 03-The Two Lonely People
DR10      -0.97 dB   -12.47 dB      5:24 04-As We Know
DR9       -0.97 dB   -11.87 dB      5:33 05-Tones For Joan's Bones
DR11      -0.97 dB   -13.28 dB      5:48 06-Bred On Red
DR11      -0.97 dB   -13.80 dB      5:42 07-Speak Like A Child
DR11      -0.97 dB   -13.95 dB      3:59 08-Search For Peace
DR9       -0.97 dB   -12.22 dB      5:11 09-Mostly Minor
DR10      -0.97 dB   -13.64 dB      4:07 10-Rainbow
--------------------------------------------------------------------------------

Number of tracks:  10
Official DR value: DR10

Samplerate:        88200 Hz
Channels:          2
Bits per sample:   24
Bitrate:           2756 kbps
Codec:             FLAC
================================================================================
По всем вопросам пишите личное сообщение пользователю M0p94ok.
19:52
298
Нет комментариев. Ваш будет первым!