Поиск

2020 David Neerman with Ensemble Sequenza 9.3 - Noir Lac {Klarthe} [24-44.1]

2020 David Neerman with Ensemble Sequenza 9.3 - Noir Lac {Klarthe} [24-44.1]
Стили:
Дата издания диска:
30 октября 2020
Носитель:
WEB
Формат:
PCM
Тип рипа:
tracks
Контейнер:
FLAC (*.flac)
Количество каналов:
2.0
Разрядность/ЧД:
24/44,1
Битрейт аудио:
lossless
Время звучания:
00:34:41
Наличие сканов:
буклет pdf

01. In My Craft or Sullen Art (4:31)
02. A House with No Mirror (3:23)
03. Dawn in New York (4:20)
04. Us and Them (5:57)
05. By the River (7:28)
06. Friends (4:13)
07. Mali Sadjo (3:19)
08. Christmas or Apocalypse (2:31)

Состав:
  • David NEERMAN: direction artistique, composition et vibraphone
  • Krystle WARREN: chant
  • Lansiné KOUYATÉ: balafon & marimba
  • Manuel PESKINE: arrangement pour les voix
  • Ensemble vocal SEQUENZA 9.3 :
  • Armelle Humbert, Hélène Richer ou Céline Boucard (Sopranos)
  • Sophie Poulain & Clothilde Cantau (Altos)
  • Steve Zheng & Nicolas Kern (Ténors)
  • Laurent Bourdeaux & Xavier Margueritat (Basses)
Лог проверки качества
foobar2000 1.6 / Dynamic Range Meter 1.1.1
log date: 2021-04-28 16:00:28
--------------------------------------------------------------------------------
Analyzed: Ensemble Sequenza 9.3 & David Neerman / Noir Lac
--------------------------------------------------------------------------------
DR         Peak         RMS     Duration Track
--------------------------------------------------------------------------------
DR9       -0.80 dB   -14.06 dB      4:31 01-In My Craft or Sullen Art
DR8       -0.80 dB   -11.95 dB      3:23 02-A House with No Mirror
DR10      -0.80 dB   -14.26 dB      4:20 03-Dawn in New York
DR9       -0.80 dB   -12.40 dB      5:57 04-Us and Them
DR12      -0.80 dB   -18.39 dB      7:28 05-By the River
DR8       -0.80 dB   -12.00 dB      4:13 06-Friends
DR11      -2.12 dB   -18.43 dB      3:19 07-Mali Sadjo
DR9       -0.80 dB   -13.10 dB      2:31 08-Christmas or Apocalypse
--------------------------------------------------------------------------------
Number of tracks:  8
Official DR value: DR9
Samplerate:        44100 Hz
Channels:          2
Bits per sample:   24
Bitrate:           1373 kbps
Codec:             FLAC
================================================================================
23:16
520
Нет комментариев. Ваш будет первым!