Поиск

1960 Roland Kirk - Introducing Roland Kirk (2021) {Music Manager} [24-48]

1960 Roland Kirk - Introducing Roland Kirk (2021) {Music Manager} [24-48]
Дата записи диска:
7 июня 1960
Место записи:
Ter-Mar Recording Studios, Chicago
Дата переиздания диска:
22 июня 2021
Издатель (лейбл):
Носитель:
WEB
Формат:
PCM
Тип рипа:
tracks
Контейнер:
FLAC (*.flac)
Количество каналов:
2.0
Разрядность/ЧД:
24/48
Битрейт аудио:
lossless
Время звучания:
00:37:19
Наличие сканов:
только обложка

01 - The Call 08:48
02 - Soul Station 05:29
03 - Our Waltz 04:54
04 - Our Love Is Here to Stay 04:50
05 - Spirit Girl 05:23
06 - Jack the Ripper 07:55

Состав:
  •     Bass – Don Garrett
  •     Drums – Sonny Brown
  •     Engineer – Ron Malo
  •     Piano, Organ – William Burton
  •     Tenor Saxophone, Saxophone [Manzello, Strich] – Roland Kirk
  •     Trumpet, Tenor Saxophone – Ira Sullivan
Лог проверки качества
foobar2000 1.4.3 / Dynamic Range Meter 1.1.1
log date: 2021-10-10 11:34:25
--------------------------------------------------------------------------------
Analyzed: Roland Kirk / Introducing Roland Kirk
--------------------------------------------------------------------------------
DR         Peak         RMS     Duration Track
--------------------------------------------------------------------------------
DR12      -0.08 dB   -15.77 dB      8:48 01-The Call
DR13      -0.01 dB   -17.41 dB      5:30 02-Soul Station
DR12      -0.05 dB   -16.19 dB      4:54 03-Our Waltz
DR11      -0.02 dB   -15.72 dB      4:51 04-Our Love Is Here to Stay
DR12      -0.05 dB   -14.66 dB      5:23 05-Spirit Girl
DR12      -0.43 dB   -16.54 dB      7:56 06-Jack the Ripper
--------------------------------------------------------------------------------
Number of tracks:  6
Official DR value: DR12
Samplerate:        48000 Hz
Channels:          2
Bits per sample:   24
Bitrate:           1325 kbps
Codec:             FLAC
================================================================================
Приватный:
Нет (DHT включён)
Размер:
350.94 Мб (367,982,366 байт) » файлов: 11
Участники:
7 раздают, 0 качают (7 участников всего)
Внешние участники:
--- [ Обновить ]
10:27
435
Нет комментариев. Ваш будет первым!