Поиск

1942-1957 Ella Mae Morse - Barrelhouse, Boogie And The Blues (2019) {RevOla} [24-44.1]

1942-1957 Ella Mae Morse - Barrelhouse, Boogie And The Blues (2019) {RevOla} [24-44.1]
Стили:
Дата переиздания диска:
16 сентября 2019
Издатель (лейбл):
Носитель:
WEB
Формат:
PCM
Тип рипа:
tracks
Контейнер:
FLAC (*.flac)
Количество каналов:
2.0
Разрядность/ЧД:
24/44,1
Битрейт аудио:
lossless
Время звучания:
00:52:33
Наличие сканов:
только обложка

01 - Rock Me All Night Long 02:25
02 - Money, Honey 02:37
03 - I Love You, Yes I Do! 02:39
04 - Daddy, Daddy 02:40
05 - (We've Reached) The Point Of No Return 02:07
06 - 40 Cups Of Coffee 02:53
07 - Teardrops From My Eyes 02:55
08 - 5-10-15 Hours 02:31
09 - Have Mercy Baby 02:16
10 - How Can You Leave A Man Like This? 02:45
11 - Give A Little Time (To Your Lover) 02:05
12 - Goodnight Sweetheart (It's Time To Go) 02:11
13 - Cow Cow Boogie 03:13
14 - The Blacksmith Blues 03:06
15 - The House Of Blue Lights 02:53
16 - Buzz Me 02:59
17 - Mr. Five-By-Five 03:02
18 - The Guy Who Invented Kissin' 02:25
19 - Heart And Soul 02:27
20 - An Occasional Man 02:24

Состав:
  • Ella Mae Morse — vocals
  • Big Dave and his Orchestra
Лог проверки качества
foobar2000 1.3.16 / Dynamic Range Meter 1.1.1
log date: 2019-10-14 16:25:18
--------------------------------------------------------------------------------
Analyzed: Ella Mae Morse / Barrelhouse, Boogie And The Blues
--------------------------------------------------------------------------------
DR         Peak         RMS     Duration Track
--------------------------------------------------------------------------------
DR10       0.00 dB   -12.22 dB      2:26 01-Rock Me All Night Long (Remastered)
DR11       0.00 dB   -12.49 dB      2:37 02-Money, Honey (Remastered)
DR11       0.00 dB   -13.04 dB      2:39 03-I Love You, Yes I Do! (Remastered)
DR11       0.00 dB   -13.04 dB      2:40 04-Daddy, Daddy (Remastered)
DR10       0.00 dB   -12.07 dB      2:08 05-(We've Reached) The Point Of No Return (Remastered)
DR12      -0.26 dB   -13.77 dB      2:53 06-40 Cups Of Coffee (Remastered)
DR12       0.00 dB   -14.07 dB      2:55 07-Teardrops From My Eyes (Remastered)
DR12       0.00 dB   -13.78 dB      2:31 08-5-10-15 Hours (Remastered)
DR12       0.00 dB   -13.86 dB      2:17 09-Have Mercy Baby (Remastered)
DR12       0.00 dB   -12.99 dB      2:45 10-How Can You Leave A Man Like This? (Remastered)
DR12       0.00 dB   -13.72 dB      2:06 11-Give A Little Time (To Your Lover) (Remastered)
DR10       0.00 dB   -11.28 dB      2:11 12-Goodnight Sweetheart (It's Time To Go) (Remastered)
DR12      -1.60 dB   -16.31 dB      3:14 13-Cow Cow Boogie (Remastered)
DR14      -0.65 dB   -17.70 dB      3:07 14-The Blacksmith Blues (Remastered)
DR11      -4.48 dB   -17.74 dB      2:53 15-The House Of Blue Lights (Remastered)
DR9       -1.01 dB   -12.79 dB      2:59 16-Buzz Me (Remastered)
DR11      -2.87 dB   -17.64 dB      3:02 17-Mr. Five-By-Five (Remastered)
DR13      -2.54 dB   -17.92 dB      2:26 18-The Guy Who Invented Kissin' (Remastered)
DR14      -3.28 dB   -19.38 dB      2:27 19-Heart And Soul (Remastered)
DR13      -3.25 dB   -19.98 dB      2:25 20-An Occasional Man (Remastered)
--------------------------------------------------------------------------------
Number of tracks:  20
Official DR value: DR12
Samplerate:        44100 Hz
Channels:          2
Bits per sample:   24
Bitrate:           721 kbps
Codec:             FLAC
================================================================================
Приватный:
Нет (DHT включён)
Размер:
435.67 Мб (456,829,626 байт) » файлов: 25
Участники:
0 раздают, 0 качают (0 участников всего)
Внешние участники:
--- [ Обновить ]
22:30
493
Нет комментариев. Ваш будет первым!