Поиск

2019 Initiative H x Moondog - Sax Pax for a Sax Remix {Neuklang} [24-44.1]

2019 Initiative H x Moondog - Sax Pax for a Sax Remix {Neuklang} [24-44.1]
Стили:
Дата записи диска:
8 апреля - 11 апреля 2019
Дата издания диска:
25 сентября 2019
Издатель (лейбл):
Носитель:
WEB
Формат:
PCM
Тип рипа:
tracks
Контейнер:
FLAC (*.flac)
Количество каналов:
2.0
Разрядность/ЧД:
24/44,1
Битрейт аудио:
lossless
Наличие сканов:
только обложка

01. Dog Trot (Live)  02:58
02. Paris (Live)  09:56
03. Bird's Lament (Live)  08:26
04. Sandalwood (Live)  07:47
05. Tout Suite (Live)  08:32
06. New Amsterdam (Live)08:44
07. Sea Horse (Live)  01:55
08. Single Foot (Live)  07:07
09. Golden Fleece (Live)  05:31

Лог проверки качества
foobar2000 1.6.10 / Dynamic Range Meter 1.1.1
log date: 2022-05-05 18:05:55

--------------------------------------------------------------------------------
Analyzed: Initiative H / Initiative H X Moondog (Sax Pax for a Sax Remix)
--------------------------------------------------------------------------------

DR         Peak         RMS     Duration Track
--------------------------------------------------------------------------------
DR9       -0.59 dB   -11.48 dB      2:58 01-Dog Trot (Live)
DR8       -0.63 dB   -10.61 dB      9:56 02-Paris (Live)
DR9       -0.61 dB   -12.05 dB      8:26 03-Bird's Lament (Live)
DR8       -0.28 dB   -11.19 dB      7:47 04-Sandalwood (Live)
DR8       -0.54 dB   -11.58 dB      8:32 05-Tout Suite (Live)
DR8       -0.57 dB   -12.16 dB      8:44 06-New Amsterdam (Live)
DR12      -3.20 dB   -20.79 dB      1:55 07-Sea Horse (Live)
DR8       -0.52 dB   -11.71 dB      7:07 08-Single Foot (Live)
DR9       -0.63 dB   -12.88 dB      5:31 09-Golden Fleece (Live)
--------------------------------------------------------------------------------

Number of tracks:  9
Official DR value: DR9

Samplerate:        44100 Hz
Channels:          2
Bits per sample:   24
Bitrate:           1461 kbps
Codec:             FLAC
================================================================================
Приватный:
Да (DHT отключён)
Размер:
667.85 Мб (700,290,399 байт) » файлов: 12
Участники:
97 раздают, 0 качают (97 участников всего)
Внешние участники:
--- [ Обновить ]
21:51
466
Нет комментариев. Ваш будет первым!