Поиск

2020 David Linx - Skin In The Game {Cristal} [24-44,1]

2020 David Linx - Skin In The Game {Cristal} [24-44,1]
Битрейт аудио:
lossless

Треклист:

01. Azadi 04:48
02. Here I Can See 04:53
03. Changed In Every Way 06:40
04. Skin In The Game 07:08
05. Prophet Birds 06:01
06. Walkaway Dreams 04:07
07. On The Other Side Of Time 05:31
08. Night Wind 06:25
09. To The End Of An Idea 06:43
10. Troublemakers 05:13
11. A Fool’s Paradise 03:59
12. Nothing Is Set In Stone (Bonus Track Digital) 05:17
13. There’s Not One Moment… (Bonus Track Digital) 06:14

Доп. инфо:

Формат записи/Источник записи: [TR24][OF]
Наличие водяных знаков: Нет
Год издания/переиздания диска: 2020
Издатель (лейбл): Cristal Records
Продолжительность: 01:12:40
Наличие сканов в содержимом раздачи: Только обложка альбома
Источник (релизер): qobuz

Контейнер: FLAC (*.flac)
Тип рипа: tracks
Разрядность: 24/44,1
Формат: PCM
Количество каналов: 2.0

Лог проверки качества
foobar2000 1.1.15 / Dynamic Range Meter 1.1.1
log date: 2020-09-22 07:04:35

--------------------------------------------------------------------------------
Analyzed: David Linx / Skin in the Game
--------------------------------------------------------------------------------

DR         Peak         RMS     Duration Track
--------------------------------------------------------------------------------
DR7       -0.30 dB   -10.26 dB      4:46 01-Azadi
DR8       -0.30 dB   -10.47 dB      4:51 02-Here I Can See
DR8       -0.30 dB   -10.13 dB      6:38 03-Changed in Every Way
DR7       -0.30 dB    -9.53 dB      7:07 04-Skin in the Game
DR8       -0.30 dB   -10.68 dB      5:59 05-Prophet Birds
DR8       -0.30 dB   -10.09 dB      4:05 06-Walkaway Dreams
DR7       -0.30 dB   -10.19 dB      5:29 07-On the Other Side of Time
DR6       -0.30 dB    -9.50 dB      6:23 08-Night Wind
DR8       -0.30 dB   -11.76 dB      6:41 09-To the End of an Idea
DR8       -0.30 dB   -11.41 dB      5:11 10-Troublemakers
DR10      -0.30 dB   -14.23 dB      3:57 11-A Fool's Paradise
DR8       -0.30 dB   -11.56 dB      5:18 12-Nothing Is Set in Stone
DR10      -0.30 dB   -13.78 dB      6:14 13-There's Not One Moment...
--------------------------------------------------------------------------------

Number of tracks:  13
Official DR value: DR8

Samplerate:        44100 Hz
Channels:          2
Bits per sample:   24
Bitrate:           1418 kbps
Codec:             FLAC
================================================================================
Приватный:
Нет (DHT включён)
Размер:
805.86 Мб (845,009,845 байт) » файлов: 16
Участники:
0 раздают, 0 качают (0 участников всего)
Внешние участники:
10 раздают, 3 качают (13 участников всего) [ Обновить ]
No seeders - write a personal message to user M0p94ok. Нет сидеров - пишите личное сообщение пользователю M0p94ok.
17:52
24
Нет комментариев. Ваш будет первым!