Поиск

2017 Bazaar - The Persian Infusion {AsiaMuse} [24-48]

2017 Bazaar - The Persian Infusion {AsiaMuse} [24-48]
Носитель:
WEB
Формат:
PCM
Тип рипа:
tracks
Аудиокодек:
FLAC (*.flac)
Количество каналов:
2.0
Разрядность/ЧД:
24/48
Битрейт аудио:
lossless
Формат записи/Источник записи:
[TR24][OF]
Время звучания:
00:38:39
Наличие сканов:
только обложка
Наличие водяных знаков:
нет
Релизёр (источник):
M0p94ok

Треклист:

1. No.138 feat. Pouyan Ranaei, Shooresh Ranaei  05:18
2. The Crescent Upon the Tigris feat. Li Xiaochuan, Sina Behroozfar  04:05
3. Hadie feat. Chang Yi-Chen, Berman Lee  05:33
4. La Medina feat. Mehdi Teymuri Farshbâf  04:34
5. Sada feat. Ying-ying Shih, Alex Wu  03:54
6. Tbilisi Bath feat. Farzad Milani, Hsuan-Ming Huang  04:40
7. Midnight Summer feat. April Centrone  05:26
8. Hamsin feat. Tadashi Yoda Kohamoto  05:09

Лог проверки качества
foobar2000 1.5.5 / Dynamic Range Meter 1.1.1
log date: 2020-10-16 16:40:18

--------------------------------------------------------------------------------
Analyzed: Bazaar, April Centrone / The Persian Infusion (1)
          Bazaar, Chang Yi-Chen, Berman Lee / The Persian Infusion (2)
          Bazaar, Farzad Milani, Hsuan-Ming Huang / The Persian Infusion (3)
          Bazaar, Li Xiaochuan, Sina Behroozfar / The Persian Infusion (4)
          Bazaar, Mehdi Teymuri Farshbâf / The Persian Infusion (5)
          Bazaar, Pouyan Ranaei, Shooresh Ranaei / The Persian Infusion (6)
          Bazaar, Tadashi Yoda Kohamoto / The Persian Infusion (7)
          Bazaar, Ying-ying Shih, Alex Wu / The Persian Infusion (8)
--------------------------------------------------------------------------------

DR         Peak         RMS     Duration Track
--------------------------------------------------------------------------------
DR8       -1.67 dB   -11.43 dB      5:26 07-Midnight Summer
DR9       -1.72 dB   -13.26 dB      5:33 03-Hadie
DR9       -1.91 dB   -12.42 dB      4:41 06-Tbilisi Bath
DR8       -1.89 dB   -11.75 dB      4:05 02-The Crescent Upon the Tigris
DR9       -1.99 dB   -12.15 dB      4:35 04-La Medina
DR8       -1.71 dB   -13.01 dB      5:19 01-No.138
DR9       -2.01 dB   -12.31 dB      5:10 08-Hamsin
DR10      -1.76 dB   -17.09 dB      3:55 05-Sada
--------------------------------------------------------------------------------

Number of tracks:  8
Official DR value: DR9

Samplerate:        48000 Hz
Channels:          2
Bits per sample:   24
Bitrate:           1391 kbps
Codec:             FLAC
================================================================================
Приватный:
Нет (DHT включён)
Размер:
435.84 Мб (457,016,547 байт) » файлов: 10
Участники:
1 раздают, 0 качают (1 участников всего)
Внешние участники:
--- [ Обновить ]
No seeders - write a personal message to user M0p94ok. Нет сидеров - пишите личное сообщение пользователю M0p94ok.
17:11
21
Нет комментариев. Ваш будет первым!