Поиск

2019 Antoine Karacostas Trio - Insulary Tales {Parallel PR010} [24-88,2]

2019 Antoine Karacostas Trio - Insulary Tales {Parallel PR010} [24-88,2]
Стили:
Дата издания диска:
22 февраля 2019
Номер по каталогу:
PR010
Носитель:
WEB
Формат:
PCM
Тип рипа:
tracks
Аудиокодек:
FLAC (*.flac)
Количество каналов:
2.0
Разрядность/ЧД:
24/88,2
Битрейт аудио:
lossless
Формат записи/Источник записи:
[TR24][OF]
Время звучания:
00:53:13
Наличие сканов:
только обложка
Наличие водяных знаков:
нет
Страна-производитель диска (релиза):
France
Релизёр (источник):
M0p94ok

Треклист:

01. L'ici et maintenant feat. Andreas Polyzogopoulos  03:47
02. To Steki  04:40
03. Aharisti feat. Federico Casagrande  05:56
04. Newborn Suite, Pt. 1  05:29
05. Newborn Suite, Pt. 2  04:56
06. I Theatrina  03:44
07. Armeriki's Song feat. Andreas Polyzogopoulos  04:43
08. To Monopati feat. Andreas Polyzogopoulos  07:26
09. O Milos feat. Federico Casagrande  06:53
10. Calme plat  05:39

Лог проверки качества
foobar2000 1.3.16 / Dynamic Range Meter 1.1.1
log date: 2019-02-24 19:41:39

--------------------------------------------------------------------------------
Analyzed: Antoine Karacostas Trio / Insulary Tales
--------------------------------------------------------------------------------

DR         Peak         RMS     Duration Track
--------------------------------------------------------------------------------
DR14      -0.68 dB   -19.43 dB      3:47 01-L'ici et maintenant (feat. Andreas Polyzogopoulos)
DR10      -0.52 dB   -12.56 dB      4:40 02-To Steki
DR9       -0.52 dB   -12.06 dB      5:57 03-Aharisti (feat. Federico Casagrande)
DR9       -0.52 dB   -13.82 dB      5:30 04-Newborn Suite, Pt. 1
DR8       -0.52 dB   -11.89 dB      4:56 05-Newborn Suite, Pt. 2
DR8       -0.52 dB   -11.25 dB      3:44 06-I Theatrina
DR8       -0.52 dB   -11.54 dB      4:43 07-Armeriki's Song (feat. Andreas Polyzogopoulos)
DR7       -0.52 dB   -10.90 dB      7:27 08-To Monopati (feat. Andreas Polyzogopoulos)
DR9       -0.52 dB   -12.63 dB      6:53 09-O Milos (feat. Federico Casagrande)
DR9       -0.52 dB   -15.31 dB      5:40 10-Calme plat
--------------------------------------------------------------------------------

Number of tracks:  10
Official DR value: DR9

Samplerate:        88200 Hz
Channels:          2
Bits per sample:   24
Bitrate:           2275 kbps
Codec:             FLAC
================================================================================
Приватный:
Нет (DHT включён)
Размер:
894.70 Мб (938,165,370 байт) » файлов: 12
Участники:
1 раздают, 0 качают (1 участников всего)
Внешние участники:
--- [ Обновить ]
No seeders - write a personal message to user M0p94ok. Нет сидеров - пишите личное сообщение пользователю M0p94ok.
13:59
18
Нет комментариев. Ваш будет первым!