Вы используете незарегистрированную версию компонента "Вкладки"!

Поиск

2019 Barney Kessel - Hard to Hide (Remastered) {Nagel Heyer} [24-44,1]

2019 Barney Kessel - Hard to Hide (Remastered) {Nagel Heyer} [24-44,1]
Издатель (лейбл):
Битрейт аудио:
lossless
Доп. инфо:

Формат записи/Источник записи: [TR24][OF]
Издание: Remastered
Год издания/переиздания диска: 2019
Издатель (лейбл): nagel heyer records
Продолжительность: 01:31:04
Наличие сканов в содержимом раздачи: Нет

Контейнер: FLAC (*.flac)
Тип рипа: tracks
Разрядность: 24/44,1
Количество каналов: 2.0

Источник (релизер): Qobuz

Лог проверки качества
foobar2000 1.4.3 / Dynamic Range Meter 1.1.1
log date: 2020-09-12 09:12:44

--------------------------------------------------------------------------------
Analyzed: Barney Kessel / Hard to Hide
--------------------------------------------------------------------------------

DR         Peak         RMS     Duration Track
--------------------------------------------------------------------------------
DR12      -1.00 dB   -17.29 dB      2:52 01-Body and Soul
DR11      -1.00 dB   -13.80 dB      2:57 02-Cheeta's for Two
DR11      -1.00 dB   -14.78 dB      4:19 03-Some Like It Hot
DR9       -1.00 dB   -13.65 dB      3:15 04-Lullaby of Birdland
DR11      -1.00 dB   -13.93 dB      7:09 05-New Rhumba
DR12      -1.00 dB   -15.10 dB      3:24 06-Tea for Two
DR10      -1.00 dB   -13.95 dB      2:32 07-East of the Sun (And West of the Moon)
DR8       -1.00 dB   -10.90 dB      4:21 08-Brasilia
DR12      -1.00 dB   -15.67 dB      3:44 09-All for You
DR10      -1.00 dB   -13.06 dB      3:43 10-I've Grown Accustomed to Her Face
DR9       -1.00 dB   -12.70 dB      3:59 11-Happy Feeling
DR10      -1.00 dB   -13.72 dB      4:35 12-Forward Blues
DR12      -1.00 dB   -14.81 dB      2:16 13-El Tigre
DR10      -1.00 dB   -13.61 dB      5:51 14-Summertime
DR10      -1.00 dB   -12.77 dB      3:51 15-Time Will Tell
DR10      -1.00 dB   -14.51 dB      4:36 16-Passeone Blues
DR9       -1.00 dB   -12.48 dB      3:22 17-The Cobra
DR11      -1.00 dB   -14.81 dB      3:55 18-The Blues
DR11      -1.00 dB   -13.47 dB      3:58 19-Moten Swing
DR10      -1.00 dB   -13.59 dB      2:34 20-Perdido
DR9       -1.00 dB   -12.58 dB      2:47 21-String of Pearls
DR9       -1.00 dB   -11.96 dB      2:58 22-Backward Blues
DR9       -1.00 dB   -11.26 dB      3:50 23-A Woman of Stature
DR9       -1.00 dB   -11.30 dB      4:28 24-The Twister
--------------------------------------------------------------------------------

Number of tracks:  24
Official DR value: DR10

Samplerate:        44100 Hz
Channels:          2
Bits per sample:   24
Bitrate:           1663 kbps
Codec:             FLAC
================================================================================
Any questions - support@pro-jazz.com. Есть вопросы - support@pro-jazz.com
00:04
252
Нет комментариев. Ваш будет первым!