Вы используете незарегистрированную версию компонента "Вкладки"!

Поиск

2020 Bobby Hackett, Edmond Hall, Vic Dickenson - One of Us {Nagel Heyer} [24-44,1]

2020 Bobby Hackett, Edmond Hall, Vic Dickenson - One of Us {Nagel Heyer} [24-44,1]
Стили:
Издатель (лейбл):
Носитель:
WEB
Формат:
PCM
Тип рипа:
tracks+.cue
Количество каналов:
2.0
Разрядность/ЧД:
24/44,1
Битрейт аудио:
lossless
Время звучания:
01:41:44
Наличие сканов:
web
Релизёр (источник):
M0p94ok
Доп. инфо:

Формат записи/Источник записи: [TR24][OF]
Издание: Remastered
Год издания/переиздания диска: 2020
Жанр: Jazz
Издатель (лейбл): nagel heyer records
Продолжительность: 01:41:44
Наличие сканов в содержимом раздачи: Нет

Контейнер: FLAC (*.flac)
Тип рипа: tracks
Разрядность: 24/44,1
Количество каналов: 2.0

Источник (релизер): Qobuz

Лог проверки качества
foobar2000 1.4.3 / Dynamic Range Meter 1.1.1
log date: 2020-09-12 10:29:41

--------------------------------------------------------------------------------
Analyzed: Bobby Hackett / One of Us
--------------------------------------------------------------------------------

DR         Peak         RMS     Duration Track
--------------------------------------------------------------------------------
DR10      -1.00 dB   -12.91 dB      5:04 01-In a Mellow Tone  (Live)
DR9       -1.00 dB   -12.10 dB      6:09 02-Indiana  (Live)
DR11      -1.00 dB   -15.96 dB      4:25 03-When Your Lover Has Gone  (Live)
DR9       -1.00 dB   -12.72 dB      7:27 04-Fidgety Feet  (Live)
DR10      -1.00 dB   -12.23 dB      4:35 05-Muskrat Ramble  (Live)
DR10      -1.00 dB   -14.43 dB      7:28 06-Basin Street Blues  (Live)
DR9       -1.00 dB   -13.98 dB      3:37 07-There'll Be Some Changes Made  (Live)
DR9       -1.00 dB   -12.11 dB      7:17 08-Struttin' with Some Barbecue  (Live)
DR9       -1.00 dB   -11.16 dB      4:24 09-Satin Doll  (Live)
DR10      -1.00 dB   -14.38 dB      7:07 10-Poor Butterfly / Manhattan / September Song / Slow Mood / Lazy River  (Live)
DR9       -1.00 dB   -12.11 dB      3:26 11-You Do Something to Me  (Live)
DR9       -1.00 dB   -12.42 dB      7:01 12-Sweet Georgia Brown  (Live)
DR10      -1.00 dB   -13.91 dB      6:16 13-Bank Commissioner's Blues  (Live)
DR9       -1.00 dB   -11.10 dB      8:03 14-Take the "A" Train  (Live)
DR10      -1.00 dB   -12.24 dB      6:39 15-Perdido  (Live)
DR9       -1.00 dB   -11.63 dB      5:57 16-Exactly Like You  (Live)
DR9       -1.00 dB   -12.67 dB      6:55 17-China Boy  (Live)
--------------------------------------------------------------------------------

Number of tracks:  17
Official DR value: DR10

Samplerate:        44100 Hz
Channels:          2
Bits per sample:   24
Bitrate:           1422 kbps
Codec:             FLAC
================================================================================
Any questions - support@pro-jazz.com. Есть вопросы - support@pro-jazz.com
09:21
263
Нет комментариев. Ваш будет первым!