Вы используете незарегистрированную версию компонента "Вкладки"!

Поиск

2019 Claude Salmieri - Parisian Jazz Romance {Uppm, Koka Media} [24-48]

2019 Claude Salmieri - Parisian Jazz Romance {Uppm,  Koka Media} [24-48]
Носитель:
WEB
Формат:
PCM
Тип рипа:
tracks+.cue
Количество каналов:
2.0
Разрядность/ЧД:
24/48
Битрейт аудио:
lossless
Время звучания:
00:38:22
Наличие сканов:
web
Релизёр (источник):
M0p94ok
Лог проверки качества
foobar2000 1.3.16 / Dynamic Range Meter 1.1.1
log date: 2019-02-23 18:39:49

--------------------------------------------------------------------------------
Analyzed: Claude Salmieri, Roland Romanelli, Alexis Salmieri / Parisian Jazz Romance (1-7)
          Claude Salmieri / Parisian Jazz Romance (8)
--------------------------------------------------------------------------------

DR         Peak         RMS     Duration Track
--------------------------------------------------------------------------------
DR10      -0.22 dB   -12.20 dB      3:05 02-Romance on the Roof
DR10      -0.20 dB   -12.87 dB      4:25 03-Le bon café
DR10      -0.22 dB   -11.81 dB      5:12 04-Jour de pluie
DR10      -0.21 dB   -12.47 dB      5:39 05-Hôtel Amour
DR10      -0.21 dB   -13.40 dB      4:17 06-Milonga Along the Seine
DR10      -0.22 dB   -12.73 dB      5:57 07-Beurre noisette
DR10      -0.22 dB   -12.21 dB      4:30 08-Parisian Escapade
DR10      -0.22 dB   -13.24 dB      5:21 01-Ile Saint-Louis rêverie
--------------------------------------------------------------------------------

Number of tracks:  8
Official DR value: DR10

Samplerate:        48000 Hz
Channels:          2
Bits per sample:   24
Bitrate:           1552 kbps
Codec:             FLAC
================================================================================
Any questions - support@pro-jazz.com. Есть вопросы - support@pro-jazz.com
20:21
223
Нет комментариев. Ваш будет первым!