Поиск

2017 Cortex - Avant-Garde Party Music {Clean Feed CF441} [24-96]

2017 Cortex - Avant-Garde Party Music {Clean Feed CF441} [24-96]
Дата записи диска:
январь 2017
Место записи:
Athletic Sound, Halden, Norway
Номер по каталогу:
CF441
Носитель:
WEB
Формат:
PCM
Тип рипа:
tracks
Количество каналов:
2.0
Разрядность/ЧД:
24/96
Битрейт аудио:
lossless
Время звучания:
00:37:42
Наличие сканов:
только обложка
Наличие водяных знаков:
нет
Страна-производитель диска (релиза):
Portugal
Релизёр (источник):
M0p94ok

Треклист:

1    Grinder    5:49
2    Chaos    3:49
3    Waltz    5:58
4    (If You Were) Mac Davis    3:39
5    Disturbance    4:23
6    Observe/Reverse    5:02
7    Perception    5:13
8    Off Course    3:54

Mixed May 2017
Mastered at Strype Audio, May 2017

Лог проверки качества
foobar2000 1.3.16 / Dynamic Range Meter 1.1.1
log date: 2019-02-25 03:12:06

--------------------------------------------------------------------------------
Analyzed: Cortex, Thomas Johansson, Kristoffer Alberts, Ola Høyer, Gard Nilssen / Avant-Garde Party Music
--------------------------------------------------------------------------------

DR         Peak         RMS     Duration Track
--------------------------------------------------------------------------------
DR9       -0.65 dB   -12.06 dB      5:49 01-Grinder
DR9       -0.65 dB   -11.14 dB      3:49 02-Chaos
DR11      -0.92 dB   -15.35 dB      5:58 03-Waltz
DR8       -0.65 dB    -9.98 dB      3:39 04-(If you where) Mac Davis
DR9       -0.65 dB   -11.53 dB      4:23 05-Disturbance
DR10      -0.65 dB   -12.80 dB      5:02 06-Obverse/Reverse
DR11      -2.74 dB   -18.65 dB      5:13 07-Perception
DR8       -0.65 dB   -10.30 dB      3:54 08-Off Course
--------------------------------------------------------------------------------

Number of tracks:  8
Official DR value: DR9

Samplerate:        96000 Hz
Channels:          2
Bits per sample:   24
Bitrate:           3023 kbps
Codec:             FLAC
================================================================================
Приватный:
Нет (DHT включён)
Размер:
773.92 Мб (811,517,570 байт) » файлов: 10
Участники:
20 раздают, 0 качают (20 участников всего)
Внешние участники:
--- [ Обновить ]
For power users only: no seeders - write to support@pro-jazz.com. Для пользователей power user: нет сидеров - пишите на support@pro-jazz.com.
20:53
89
Нет комментариев. Ваш будет первым!