Вы используете незарегистрированную версию компонента "Вкладки"!

Поиск

2019 Cyrille Aimee - Move On - A Sondheim Adventure {Mack Avenue} [24-96]

2019 Cyrille Aimee - Move On - A Sondheim Adventure {Mack Avenue} [24-96]
Стили:
Дата издания диска:
22 февраля 2019
Издатель (лейбл):
Номер по каталогу:
MAC1144
Носитель:
WEB
Формат:
PCM
Тип рипа:
tracks+.cue
Количество каналов:
2.0
Разрядность/ЧД:
24/96
Битрейт аудио:
lossless
Время звучания:
00:44:18
Наличие сканов:
web
Релизёр (источник):
M0p94ok
Доп. инфо:

Track 1 from the unproduced musical "Climb High" (1952)
Tracks 2, 12 from TV musical "Evening Primrose" (1966)
Track 3 from "A Funny Thing Happened on the Way to the Forum" (1962)
Track 4 from "Passion" (1994)
Track 5 originally cut from "Company" (1970)
Tracks 6, 7 from "Company" (1970)
Track 7 from "Saturday Night" (1955 - produced in 1997)
Track 8 from "Sweeney Todd: the Demon Barber of Fleet Street" (1979)
Track 9 from unproduced TV play "I Believe in You" (1956)
Track 10 from "Into the Woods" (1987)
Track 11 from "Follies" (1971)
Track 13 from "Sunday in the Park with George" (1983)
Track 14 from "Anyone Can Whistle" (1964)

Лог проверки качества
foobar2000 1.3.16 / Dynamic Range Meter 1.1.1
log date: 2019-02-22 03:30:29

--------------------------------------------------------------------------------
Analyzed: Cyrille Aimée / Move On: A Sondheim Adventure
--------------------------------------------------------------------------------

DR         Peak         RMS     Duration Track
--------------------------------------------------------------------------------
DR10      -0.40 dB   -13.10 dB      2:00 01-When I Get Famous (Intro)
DR8        0.00 dB   -10.94 dB      3:39 02-Take Me to the World
DR10      -0.26 dB   -13.86 dB      2:52 03-Love, I Hear
DR12      -0.32 dB   -16.73 dB      2:52 04-Loving You
DR9       -1.27 dB   -12.80 dB      3:06 05-Marry Me a Little
DR8       -0.50 dB   -11.23 dB      4:14 06-Being Alive
DR11      -1.01 dB   -14.52 dB      2:41 07-So Many People
DR7        0.00 dB   -10.73 dB      4:09 08-Not While I'm Around
DR11      -4.68 dB   -17.62 dB      1:58 09-They Ask Why I Believe in You
DR8        0.00 dB   -12.04 dB      5:27 10-No One is Alone
DR8       -1.00 dB   -12.91 dB      2:38 11-Un Baiser d’Adieu (One More Kiss)
DR12      -0.30 dB   -17.21 dB      5:09 12-I Remember
DR10      -1.75 dB   -14.29 dB      3:38 13-Move On
--------------------------------------------------------------------------------

Number of tracks:  13
Official DR value: DR9

Samplerate:        96000 Hz
Channels:          2
Bits per sample:   24
Bitrate:           2701 kbps
Codec:             FLAC
================================================================================
Any questions - support@pro-jazz.com. Есть вопросы - support@pro-jazz.com
11:58
307
Нет комментариев. Ваш будет первым!