Вы используете незарегистрированную версию компонента "Вкладки"!

Поиск

2020 Daniel Romeo - The Black Days Session #1 {CQFD} [24-44,1]

2020 Daniel Romeo - The Black Days Session #1 {CQFD} [24-44,1]
Битрейт аудио:
lossless
Доп. инфо:

• Формат записи | Источник записи: [TR24][OF]
• Наличие водяных знаков: Нет
• Год издания релиза: 2020
• Лейбл: CQFD
• Продолжительность: 00:59:56
• Источник: internet
• WEB релиз: ссылка
• Контейнер: FLAC (*.flac)
• Тип рипа: tracks
• Разрядность: 24/44,1
• Формат: PCM
• Количество каналов: 2.0
• Наличие сканов: front

Лог проверки качества
foobar2000 1.4.2 / Dynamic Range Meter 1.1.1
log date: 2020-02-29 11:58:28

--------------------------------------------------------------------------------
Analyzed: Daniel Romeo / The Black Days Session #1
--------------------------------------------------------------------------------

DR         Peak         RMS     Duration Track
--------------------------------------------------------------------------------
DR9       -0.17 dB   -11.33 dB      5:11 01-The Black Days
DR9       -0.19 dB   -12.38 dB      5:27 02-On the Edge
DR10      -0.10 dB   -11.56 dB      5:31 03-Fat Cat
DR8       -0.17 dB   -11.16 dB      7:10 04-Onika
DR9       -0.12 dB   -11.30 dB      5:05 05-Vincent (#1)
DR10      -0.16 dB   -12.00 dB      5:20 06-Pali
DR11      -0.20 dB   -12.29 dB      4:45 07-La valse de soleil Marijane
DR11      -0.10 dB   -12.22 dB      5:44 08-Escro
DR11      -0.10 dB   -13.09 dB      6:41 09-When You Reveal Yourself
DR10      -0.10 dB   -11.93 dB      5:41 10-Serenity
DR13      -0.21 dB   -16.81 dB      3:23 11-Vincent (#2)
--------------------------------------------------------------------------------

Number of tracks:  11
Official DR value: DR10

Samplerate:        44100 Hz
Channels:          2
Bits per sample:   24
Bitrate:           1344 kbps
Codec:             FLAC
================================================================================
Any questions - support@pro-jazz.com. Есть вопросы - support@pro-jazz.com
10:12
263
Нет комментариев. Ваш будет первым!