Вы используете незарегистрированную версию компонента "Вкладки"!

Поиск

2013 Julian & Roman Wasserfuhr - Running {ACT Music 9545-2} [24-44,1]

2013 Julian & Roman Wasserfuhr - Running {ACT Music 9545-2} [24-44,1]
Стили:
Издатель (лейбл):
Номер по каталогу:
ACT 9545-2
Носитель:
WEB
Формат:
PCM
Тип рипа:
tracks+.cue
Контейнер:
FLAC (*.flac)
Количество каналов:
2.0
Разрядность/ЧД:
24/44,1
Битрейт аудио:
lossless
Время звучания:
01:03:41
Наличие сканов:
да
Релизёр (источник):
M0p94ok
Лог проверки качества
foobar2000 1.3.16 / Dynamic Range Meter 1.1.1
log date: 2019-01-03 00:45:54

--------------------------------------------------------------------------------
Analyzed: Julian & Roman Wasserfuhr / Running
--------------------------------------------------------------------------------

DR         Peak         RMS     Duration Track
--------------------------------------------------------------------------------
DR8       -0.40 dB   -12.38 dB      4:38 01-Weary Journey
DR7       -0.40 dB   -10.49 dB      3:22 02-Bachelor (Over the Ear Look)
DR10      -0.40 dB   -13.01 dB      6:51 03-Behind Blue Eyes
DR8       -0.40 dB   -12.17 dB      5:06 04-Adonis
DR7       -0.40 dB   -10.76 dB      5:00 05-Stoned Remote
DR9       -0.40 dB   -13.92 dB      5:24 06-Nowhere Man
DR8       -0.40 dB   -11.40 dB      5:53 07-7 Gegner
DR8       -0.40 dB   -10.99 dB      3:17 08-Rocholz-Korosak
DR9       -0.40 dB   -11.74 dB      6:08 09-Go On
DR8       -0.40 dB   -11.59 dB      5:46 10-Joy and Sorrow
DR7       -0.40 dB   -10.68 dB      3:36 11-Hilmar
DR6       -0.40 dB    -9.90 dB      4:33 12-Uncertainty
DR9       -0.40 dB   -13.33 dB      4:08 13-See You Again
--------------------------------------------------------------------------------

Number of tracks:  13
Official DR value: DR8

Samplerate:        44100 Hz
Channels:          2
Bits per sample:   24
Bitrate:           1188 kbps
Codec:             FLAC
================================================================================
Any questions - support@pro-jazz.com. Есть вопросы - support@pro-jazz.com
23:40
245
Нет комментариев. Ваш будет первым!