Вы используете незарегистрированную версию компонента "Вкладки"!

Поиск

2013 Klaus Paier, Asja Valcic - Silk Road {ACT Music ACT 9538-2} [24-44,1]

2013 Klaus Paier, Asja Valcic - Silk Road {ACT Music ACT 9538-2} [24-44,1]
Издатель (лейбл):
Номер по каталогу:
ACT 9538-2
Носитель:
WEB
Формат:
PCM
Тип рипа:
tracks+.cue
Контейнер:
FLAC (*.flac)
Количество каналов:
2.0
Разрядность/ЧД:
24/44,1
Битрейт аудио:
lossless
Время звучания:
00:51:19
Наличие сканов:
да
Страна-производитель диска (релиза):
Germany
Релизёр (источник):
M0p94ok
Лог проверки качества
foobar2000 1.3.16 / Dynamic Range Meter 1.1.1
log date: 2019-01-03 00:46:06

--------------------------------------------------------------------------------
Analyzed: Klaus Paier, Asja Valcic / Silk Road
--------------------------------------------------------------------------------

DR         Peak         RMS     Duration Track
--------------------------------------------------------------------------------
DR10      -0.22 dB   -13.09 dB      4:23 01-Ayer
DR10      -0.22 dB   -14.12 dB      4:39 02-Just a Day
DR10      -0.22 dB   -14.41 dB      7:47 03-Silk Road
DR9       -0.22 dB   -12.86 dB      4:29 04-Song Is Blue
DR12      -0.22 dB   -15.78 dB      4:59 05-Waltz for Mama
DR9       -0.22 dB   -12.27 dB      4:19 06-Whirlwind
DR9       -0.22 dB   -14.13 dB      4:37 07-Night Walk
DR10      -0.22 dB   -14.34 dB      3:38 08-Troubadour
DR10      -0.22 dB   -12.48 dB      3:40 09-Stirring Summer Storm
DR8       -0.22 dB   -11.28 dB      4:23 10-Celtango
DR8       -0.22 dB   -12.45 dB      4:25 11-How Roses Are
--------------------------------------------------------------------------------

Number of tracks:  11
Official DR value: DR9

Samplerate:        44100 Hz
Channels:          2
Bits per sample:   24
Bitrate:           1510 kbps
Codec:             FLAC
================================================================================
Any questions - support@pro-jazz.com. Есть вопросы - support@pro-jazz.com
11:14
278
Нет комментариев. Ваш будет первым!