Вы используете незарегистрированную версию компонента "Вкладки"!

Поиск

2020 Curtis Amy, Paul Bryant - Eye To Eye {Nagel Heyer} [24-44,1]

2020 Curtis Amy, Paul Bryant - Eye To Eye {Nagel Heyer} [24-44,1]
Стили:
Издатель (лейбл):
Битрейт аудио:
lossless
Доп. инфо:

Формат записи/Источник записи: [TR24][OF]
Издание: Remastered
Год издания/переиздания диска: 2020
Издатель (лейбл): nagel heyer records
Продолжительность: 01:43:43
Наличие сканов в содержимом раздачи: Нет

Контейнер: FLAC (*.flac)
Тип рипа: tracks
Разрядность: 24/44,1
Количество каналов: 2.0

Источник (релизер): Qobuz

Лог проверки качества
foobar2000 1.3.16 / Dynamic Range Meter 1.1.1
log date: 2020-08-25 16:21:18

--------------------------------------------------------------------------------
Analyzed: Curtis Amy / Eye to Eye
--------------------------------------------------------------------------------

DR         Peak         RMS     Duration Track
--------------------------------------------------------------------------------
DR9       -1.00 dB   -12.50 dB      6:47 01-Early in the Morning
DR9       -1.00 dB   -12.76 dB      4:59 02-Come Rain or Come Shine
DR9       -1.00 dB   -11.50 dB      6:05 03-If I Were a Bell
DR9       -1.00 dB   -11.18 dB      8:43 04-The Blues Message
DR9       -1.00 dB   -12.48 dB      5:24 05-24 Hours Blues
DR10      -1.00 dB   -13.49 dB      7:43 06-Beautiful You
DR9       -1.00 dB   -11.27 dB      4:15 07-Just Friends
DR9       -1.00 dB   -11.93 dB      8:04 08-One More Hamhock, Please
DR8       -1.00 dB   -12.92 dB      6:24 09-Angel Eyes
DR10      -1.00 dB   -13.09 dB      5:21 10-Bobblin'
DR8       -1.00 dB   -11.49 dB      8:47 11-Searchin'
DR8       -1.00 dB   -11.40 dB      7:09 12-Meetin' Here
DR10      -1.00 dB   -13.41 dB      6:18 13-Gone into It
DR9       -1.00 dB   -11.08 dB      9:28 14-Goin' Down, Catch Me a Woman
DR9       -1.00 dB   -12.33 dB      8:27 15-This Is the Blues
--------------------------------------------------------------------------------

Number of tracks:  15
Official DR value: DR9

Samplerate:        44100 Hz
Channels:          2
Bits per sample:   24
Bitrate:           1678 kbps
Codec:             FLAC
================================================================================
Any questions - support@pro-jazz.com. Есть вопросы - support@pro-jazz.com
14:14
249
Нет комментариев. Ваш будет первым!