Вы используете незарегистрированную версию компонента "Вкладки"!

Поиск

1993 Marion Brown Quintet - Offering (2017) {Venus VHGD-262} [DSD64 ISO]

1993 Marion Brown Quintet - Offering (2017) {Venus VHGD-262} [DSD64 ISO]
Дата записи диска:
7 октября 1992
Место записи:
Sear Sound Studio, New York City, NY, USA
Дата издания диска:
1993
Дата переиздания диска:
2017
Издатель (лейбл):
Номер по каталогу:
VHGD-262
Носитель:
SACD
Формат:
DST
Тип рипа:
image+.cue
Контейнер:
FLAC (*.flac)
Количество каналов:
2.0
Разрядность/ЧД:
64 (2,8 MHz/1 Bit)
Битрейт аудио:
lossless
Время звучания:
00:44:19
Наличие сканов:
нет
Страна-производитель диска (релиза):
USA
Релизёр (источник):
M0p94ok
Лог проверки качества
foobar2000 1.5.5 / Dynamic Range Meter 1.1.1
log date: 2020-10-14 13:12:56

--------------------------------------------------------------------------------
Analyzed: MARION BROWN QUINTET / Offering
--------------------------------------------------------------------------------

DR         Peak         RMS     Duration Track
--------------------------------------------------------------------------------
DR8       -4.84 dB   -15.95 dB      9:53 01-Terra
DR10      -5.55 dB   -19.01 dB      4:15 02-Self Portrait In Three Colors
DR9       -5.33 dB   -16.58 dB      5:21 03-Ode To Coltrane
DR7       -5.21 dB   -13.90 dB      3:47 04-Sly Entrance
DR12      -5.30 dB   -21.80 dB      6:22 05-Golden Lady In The Graham Cracker Window
DR9       -4.94 dB   -16.79 dB      7:47 06-Berkshire Blues
DR9       -5.17 dB   -17.00 dB      7:01 07-After The Rain
--------------------------------------------------------------------------------

Number of tracks:  7
Official DR value: DR9

Samplerate:        2822400 Hz / PCM Samplerate: 88200 Hz
Channels:          2
Bits per sample:   1
Bitrate:           5645 kbps
Codec:             DSD64
================================================================================
Any questions - support@pro-jazz.com. Есть вопросы - support@pro-jazz.com
14:45
234
Нет комментариев. Ваш будет первым!