Поиск

2020 Anna Inginmaa - Anna Inginmaa {Stupido} [24-44,1]

2020 Anna Inginmaa - Anna Inginmaa {Stupido} [24-44,1]
Стили:
Битрейт аудио:
lossless

Треклист:

◈ 01 - Kesäyön melankoliaa (00:03:57)
◈ 02 - Hölmö lintu (00:03:13)
◈ 03 - Saturnuksen renkaat (00:05:27)
◈ 04 - Painavaa (00:04:32)
◈ 05 - Rakastan tätä elämää (00:03:51)
◈ 06 - Tanssi pikkusisko (00:06:21)
◈ 07 - Mustia narsisseja (00:03:39)
◈ 08 - Suuri ihminen (00:05:11)

Доп. инфо:

• Формат записи | Источник записи: [TR24][OF]
• Наличие водяных знаков: Нет
• Страна: Finland
• Год издания релиза: 2020
• Продолжительность: 00:36:11
• Источник: internet
• WEB релиз: ссылка
• Контейнер: FLAC (*.flac)
• Тип рипа: tracks
• Разрядность: 24/44,1
• Формат: WAV (flac.ape.wv)
• Количество каналов: 2.0
• Наличие сканов: front
 

Лог проверки качества
foobar2000 1.4.2 / Замер динамического диапазона (DR) 1.1.1
Дата отчёта:  2020-08-26 10:59:59

--------------------------------------------------------------------------------
Анализ:   Anna Inginmaa / Anna Inginmaa
--------------------------------------------------------------------------------

DR         Пики         RMS           Продолжительность трека
--------------------------------------------------------------------------------
DR8       -0.50 дБ    -9.84 дБ      3:57 01-Kesäyön melankoliaa
DR8       -0.91 дБ   -11.61 дБ      3:13 02-Hölmö lintu
DR7       -0.98 дБ   -11.50 дБ      5:27 03-Saturnuksen renkaat
DR8       -0.89 дБ   -12.33 дБ      4:33 04-Painavaa
DR9       -0.91 дБ   -13.05 дБ      3:51 05-Rakastan tätä elämää
DR7       -0.50 дБ   -10.01 дБ      6:22 06-Tanssi pikkusisko
DR8       -0.50 дБ    -9.70 дБ      3:39 07-Mustia narsisseja
DR8       -0.79 дБ   -12.53 дБ      5:12 08-Suuri ihminen
--------------------------------------------------------------------------------

Количество треков: 8
Реальные значения DR: DR8

Частота:   44100 Гц
Каналов:   2
Разрядность:   24
Битрейт:   1435 кбит/с
Кодек:   FLAC
================================================================================
По всем вопросам пишите личное сообщение пользователю M0p94ok.
22:48
407
Нет комментариев. Ваш будет первым!