Вы используете незарегистрированную версию компонента "Вкладки"!

Поиск

2019 Marton Juhasz - Discovery {Marton Juhasz} [24-96]

2019 Marton Juhasz - Discovery {Marton Juhasz} [24-96]
Стили:
Дата записи диска:
18-19 мая 2018
Место записи:
Jazzcampus Basel
Дата издания диска:
23 января 2019
Носитель:
WEB
Формат:
PCM
Тип рипа:
tracks+.cue
Контейнер:
FLAC (*.flac)
Количество каналов:
2.0
Разрядность/ЧД:
24/96
Битрейт аудио:
lossless
Время звучания:
00:41:34
Наличие сканов:
web
Релизёр (источник):
M0p94ok
Лог проверки качества
foobar2000 1.5.5 / Dynamic Range Meter 1.1.1
log date: 2020-10-13 22:53:15

--------------------------------------------------------------------------------
Analyzed: Marton Juhasz / Discovery
--------------------------------------------------------------------------------

DR         Peak         RMS     Duration Track
--------------------------------------------------------------------------------
DR9       -7.09 dB   -18.56 dB      1:16 01-Sea Of Uncertainty
DR13      -3.23 dB   -18.66 dB      5:49 02-The Curve
DR13      -2.97 dB   -18.28 dB      5:59 03-Little Prayer
DR10      -7.13 dB   -22.38 dB      2:23 04-Levian
DR10      -7.66 dB   -22.53 dB      2:01 05-Industry
DR13      -2.79 dB   -17.28 dB      5:20 06-Stino
DR13      -3.38 dB   -18.80 dB      3:17 07-Wolves Gather Under A Winter Moon
DR11      -5.86 dB   -21.54 dB      5:06 08-Spellbound
DR13      -2.49 dB   -17.66 dB      4:03 09-Camels In The Sky
DR8       -4.66 dB   -16.47 dB      2:58 10-Strange Glow
DR10      -7.01 dB   -21.13 dB      3:29 11-Run
--------------------------------------------------------------------------------

Number of tracks:  11
Official DR value: DR11

Samplerate:        96000 Hz
Channels:          2
Bits per sample:   24
Bitrate:           2681 kbps
Codec:             FLAC
================================================================================
Any questions - support@pro-jazz.com. Есть вопросы - support@pro-jazz.com
23:23
233
Нет комментариев. Ваш будет первым!