Вы используете незарегистрированную версию компонента "Вкладки"!

Поиск

1965 Quincy Jones - Mirage (Original Motion Picture Score) (2016) {Mercury} [24-192]

1965 Quincy Jones - Mirage (Original Motion Picture Score) (2016) {Mercury} [24-192]
Дата издания диска:
1965
Дата переиздания диска:
2016
Издатель (лейбл):
Номер по каталогу:
MG 21025
Носитель:
WEB
Формат:
PCM
Тип рипа:
tracks+.cue
Контейнер:
FLAC (*.flac)
Количество каналов:
2.0
Разрядность/ЧД:
24/192
Битрейт аудио:
lossless
Время звучания:
00:34:29
Наличие сканов:
web
Страна-производитель диска (релиза):
USA
Релизёр (источник):
M0p94ok
Лог проверки качества
foobar2000 1.3.16 / Dynamic Range Meter 1.1.1
log date: 2019-02-22 17:58:38

--------------------------------------------------------------------------------
Analyzed: Quincy Jones / Mirage (Original Motion Picture Score)
--------------------------------------------------------------------------------

DR         Peak         RMS     Duration Track
--------------------------------------------------------------------------------
DR10      -0.10 dB   -13.41 dB      2:22 01-Mirage (Vocal Version)
DR12      -0.14 dB   -15.72 dB      3:17 02-Boobie Baby
DR9       -0.10 dB   -12.82 dB      2:32 03-Shoot To Kill
DR10      -0.10 dB   -13.63 dB      3:21 04-Dead Duck
DR11      -0.69 dB   -14.55 dB      3:08 05-Purple Prose
DR11      -0.10 dB   -14.86 dB      2:54 06-Main Title
DR10      -0.10 dB   -14.44 dB      3:37 07-Mirage (Instrumental Version)
DR12      -0.10 dB   -17.57 dB      1:42 08-Turtle's Last Lap
DR11      -0.10 dB   -14.17 dB      4:10 09-A Shot In The Park
DR10      -0.10 dB   -12.72 dB      4:39 10-Kinda Scary
DR9       -0.10 dB   -13.41 dB      2:56 11-End Title
--------------------------------------------------------------------------------

Number of tracks:  11
Official DR value: DR11

Samplerate:        192000 Hz
Channels:          2
Bits per sample:   24
Bitrate:           6013 kbps
Codec:             FLAC
================================================================================
Any questions - support@pro-jazz.com. Есть вопросы - support@pro-jazz.com
00:11
245
Нет комментариев. Ваш будет первым!