Вы используете незарегистрированную версию компонента "Вкладки"!

Поиск

2019 Oddgeir Berg Trio - In the End of the Night {Ozella OZ1093} [24-44,1]

2019 Oddgeir Berg Trio - In the End of the Night {Ozella OZ1093} [24-44,1]
Стили:
Дата записи диска:
20-21 апреля 2018
Место записи:
Bonker Studio
Издатель (лейбл):
Номер по каталогу:
OZ1093
Носитель:
WEB
Формат:
PCM
Тип рипа:
tracks+.cue
Количество каналов:
2.0
Разрядность/ЧД:
24/44,1
Битрейт аудио:
lossless
Время звучания:
00:43:33
Наличие сканов:
web
Страна-производитель диска (релиза):
Germany
Релизёр (источник):
M0p94ok
Лог проверки качества
foobar2000 1.5.5 / Dynamic Range Meter 1.1.1
log date: 2020-10-14 21:26:43

--------------------------------------------------------------------------------
Analyzed: Oddgeir Berg Trio / In the End of the Night
--------------------------------------------------------------------------------

DR         Peak         RMS     Duration Track
--------------------------------------------------------------------------------
DR11      -0.69 dB   -13.75 dB      6:25 01-Vagabond
DR10      -0.62 dB   -13.16 dB      4:13 02-American Dream
DR9       -0.70 dB   -12.13 dB      5:26 03-The Escape
DR10      -0.71 dB   -13.34 dB      5:04 04-List
DR9       -0.70 dB   -12.13 dB      3:45 05-Travellers
DR11      -0.71 dB   -14.53 dB      4:34 06-Way Home
DR10      -0.70 dB   -12.56 dB      4:02 07-Future Has Come
DR12      -0.71 dB   -15.77 dB      2:52 08-Lullaby for A.O.
DR8       -0.67 dB   -11.60 dB      4:38 09-Stars Aligned
DR15      -0.72 dB   -18.21 dB      2:30 10-In the End of the Night
--------------------------------------------------------------------------------

Number of tracks:  10
Official DR value: DR10

Samplerate:        44100 Hz
Channels:          2
Bits per sample:   24
Bitrate:           1322 kbps
Codec:             FLAC
================================================================================
Any questions - support@pro-jazz.com. Есть вопросы - support@pro-jazz.com
15:29
289
Нет комментариев. Ваш будет первым!