Поиск

2019 Stan Kenton - Those Lovely Jazz Ladies!....With Stan Kenton! (Remastered) {RevOla} [24-44,1]

2019 Stan Kenton - Those Lovely Jazz Ladies!....With Stan Kenton! (Remastered) {RevOla} [24-44,1]
Стили:
Издатель (лейбл):
Носитель:
WEB
Формат:
PCM
Тип рипа:
tracks+.cue
Количество каналов:
2.0
Разрядность/ЧД:
24/44,1
Битрейт аудио:
lossless
Время звучания:
01:11:48
Наличие сканов:
web
Страна-производитель диска (релиза):
USA
Релизёр (источник):
M0p94ok

Треклист:

01. And The Bull Walked Around, Olay (Remastered)  02:42
02. All About Ronnie (Remastered)  02:52
03. Jeepers Creepers (Remastered)  02:19
04. If I Should Lose You (Remastered)  02:40
05. I Get A Kick Out Of You (Remastered)  02:44
06. Lonesome Train (Remastered)  02:47
07. A Lot Of Livin' To Do (Remastered)  02:06
08. It's A Big, Wide, Wonderful World (Remastered)  01:40
09. Black Coffee (Remastered)  03:39
10. The Thrill Is Gone (Remastered)  02:52
11. Don't Be That Way (Remastered)  03:49
12. I Got Rhythm (Remastered)  04:07
13. The Morning After (Remastered)  04:06
14. Daddy (Remastered)  02:04
15. Ain't No Misery In Me (Remastered)  03:00
16. Willow Weep For Me (Remastered)  03:08
17. Across The Valley From The Alamo (Remastered)  02:37
18. It's Been A Long Long Time (Remastered)  02:45
19. Shoo Fly Pie And Apple Pan Dowdy (Remastered)  02:39
20. Just A Sittin' And A Rockin' (Remastered)  02:50
21. Tampico (Remastered)  02:44
22. And Her Tears Flowed Like Wine (Remastered)  03:08
23. Gotta' Be Gettin' (Remastered)  02:47
24. Are You Livin' Old Man? (Remastered)  02:38
25. I'm Going Mad For A Pad! (Remastered)  03:05

Лог проверки качества
foobar2000 1.5.5 / Dynamic Range Meter 1.1.1
log date: 2020-10-15 15:34:47

--------------------------------------------------------------------------------
Analyzed: Anita O'day / Those Lovely Jazz Ladies!....With Stan Kenton! (Remastered) (1-4)
          Ann Richards / Those Lovely Jazz Ladies!....With Stan Kenton! (Remastered) (5-9)
          Chris Connor / Those Lovely Jazz Ladies!....With Stan Kenton! (Remastered) (10-14)
          Jean Turner / Those Lovely Jazz Ladies!....With Stan Kenton! (Remastered) (15-16)
          June Christy / Those Lovely Jazz Ladies!....With Stan Kenton! (Remastered) (17-24)
          Kay Brown / Those Lovely Jazz Ladies!....With Stan Kenton! (Remastered) (25)
--------------------------------------------------------------------------------

DR         Peak         RMS     Duration Track
--------------------------------------------------------------------------------
DR14      -4.60 dB   -20.59 dB      3:09 22-And Her Tears Flowed Like Wine (Remastered)
DR13      -6.16 dB   -22.35 dB      2:48 23-Gotta' Be Gettin' (Remastered)
DR13      -5.89 dB   -22.43 dB      2:39 24-Are You Livin' Old Man? (Remastered)
DR12      -6.91 dB   -20.73 dB      3:05 25-I'm Going Mad For A Pad! (Remastered)
DR12      -4.61 dB   -21.24 dB      3:39 09-Black Coffee (Remastered)
DR12      -5.79 dB   -20.49 dB      2:53 10-The Thrill Is Gone (Remastered)
DR12      -6.43 dB   -21.48 dB      3:50 11-Don't Be That Way (Remastered)
DR13      -4.99 dB   -21.50 dB      4:08 12-I Got Rhythm (Remastered)
DR13      -6.66 dB   -21.57 dB      4:06 13-The Morning After (Remastered)
DR12      -4.82 dB   -20.12 dB      2:43 01-And The Bull Walked Around, Olay (Remastered)
DR13      -3.79 dB   -20.62 dB      2:53 02-All About Ronnie (Remastered)
DR13      -4.89 dB   -20.85 dB      2:20 03-Jeepers Creepers (Remastered)
DR11      -5.12 dB   -19.95 dB      2:41 04-If I Should Lose You (Remastered)
DR13      -3.96 dB   -20.41 dB      2:44 05-I Get A Kick Out Of You (Remastered)
DR12      -4.16 dB   -20.34 dB      2:06 07-A Lot Of Livin' To Do (Remastered)
DR10      -5.35 dB   -19.96 dB      1:41 08-It's A Big, Wide, Wonderful World (Remastered)
DR13      -4.60 dB   -20.59 dB      2:05 14-Daddy (Remastered)
DR11      -4.60 dB   -17.55 dB      3:01 15-Ain't No Misery In Me (Remastered)
DR10      -5.70 dB   -19.43 dB      3:09 16-Willow Weep For Me (Remastered)
DR11      -7.53 dB   -20.95 dB      2:38 17-Across The Valley From The Alamo (Remastered)
DR11      -6.60 dB   -19.62 dB      2:45 18-It's Been A Long Long Time (Remastered)
DR10      -6.32 dB   -19.39 dB      2:40 19-Shoo Fly Pie And Apple Pan Dowdy (Remastered)
DR11      -5.63 dB   -20.42 dB      2:51 20-Just A Sittin' And A Rockin' (Remastered)
DR12      -5.07 dB   -21.21 dB      2:44 21-Tampico (Remastered)
DR13      -4.66 dB   -20.74 dB      2:48 06-Lonesome Train (Remastered)
--------------------------------------------------------------------------------

Number of tracks:  25
Official DR value: DR12

Samplerate:        44100 Hz
Channels:          2
Bits per sample:   24
Bitrate:           1386 kbps
Codec:             FLAC
================================================================================
По всем вопросам пишите личное сообщение пользователю M0p94ok.
14:58
387
Нет комментариев. Ваш будет первым!