Вы используете незарегистрированную версию компонента "Вкладки"!

Поиск

2020 CUG Jazz Orchestra - Old and New Dreams vol.2 {CUG} [24-96]

2020 CUG Jazz Orchestra - Old and New Dreams vol.2 {CUG} [24-96]
Стили:
Битрейт аудио:
lossless
Доп. инфо:

• Формат записи | Источник записи: [TR24][OF]
• Наличие водяных знаков: Нет
• Год издания релиза: 2020
• Лейбл: CUG Records
• Продолжительность: 00:47:20
• Источник: internet
• WEB релиз: ссылка
• Контейнер: FLAC (*.flac)
• Тип рипа: tracks
• Разрядность: 24/96
• Формат: PCM
• Количество каналов: 2.0
• Наличие сканов: front

Лог проверки качества
foobar2000 1.4.2 / Dynamic Range Meter 1.1.1
log date: 2020-03-01 19:55:17

--------------------------------------------------------------------------------
Analyzed: CUG Jazz Orchestra / Old and New Dreams vol.2
--------------------------------------------------------------------------------

DR         Peak         RMS     Duration Track
--------------------------------------------------------------------------------
DR13       0.00 dB   -15.07 dB      7:15 01-The Promise
DR13       0.00 dB   -15.34 dB      6:45 02-Fall
DR13       0.00 dB   -15.38 dB      7:20 03-Fat Back
DR12      -0.79 dB   -16.76 dB      4:31 04-Sophisticated Lady
DR10       0.00 dB   -12.55 dB      2:38 05-I Just Found out About Love
DR12       0.00 dB   -14.13 dB      3:31 06-TENKASOUZOU Suite Three Heroes: I. Oda Nobunaga
DR14       0.00 dB   -16.33 dB      3:01 07-TENKASOUZOU Suite Three Heroes: II. Toyotomi Hideyoshi
DR12       0.00 dB   -15.23 dB      5:57 08-TENKASOUZOU Suite Three Heroes III Tokugawa Ieyasu
DR13       0.00 dB   -16.01 dB      6:23 09-Yuriage no Matsunamiki
--------------------------------------------------------------------------------

Number of tracks:  9
Official DR value: DR12

Samplerate:        96000 Hz
Channels:          2
Bits per sample:   24
Bitrate:           2845 kbps
Codec:             FLAC
================================================================================
Any questions - support@pro-jazz.com. Есть вопросы - support@pro-jazz.com
10:11
263
Нет комментариев. Ваш будет первым!