Вы используете незарегистрированную версию компонента "Вкладки"!

Поиск

1991 The Jumping Jivers - Hey Louis! a Salute to Louis Jordan {IN+OUT} [24-44,1]

1991 The Jumping Jivers - Hey Louis! a Salute to Louis Jordan {IN+OUT} [24-44,1]
Издатель (лейбл):
Битрейт аудио:
lossless
Доп. инфо:

• Формат записи | Источник записи: [TR24][OF]
• Наличие водяных знаков: Нет
• Год издания релиза: 1991
• Лейбл: IN+OUT Records
• Продолжительность: 00:52:06
• Источник: internet
• WEB релиз: ссылка
• Контейнер: FLAC (*.flac)
• Тип рипа: tracks
• Разрядность: 24/44,1
• Формат: PCM
• Количество каналов: 2.0
• Наличие сканов: front

Лог проверки качества
foobar2000 1.4.2 / Dynamic Range Meter 1.1.1
log date: 2020-03-01 11:45:03

--------------------------------------------------------------------------------
Analyzed: The Jumping Jivers / Hey Louis! a Salute to Louis Jordan
--------------------------------------------------------------------------------

DR         Peak         RMS     Duration Track
--------------------------------------------------------------------------------
DR15      -2.60 dB   -20.92 dB      4:07 01-Let the Good Times Roll
DR16      -4.23 dB   -23.35 dB      3:15 02-Early in the Mornin'
DR14      -1.10 dB   -18.11 dB      3:34 03-Saturday Night Fish Fry
DR15      -4.02 dB   -21.84 dB      2:40 04-Knock Me a Kiss
DR14      -2.87 dB   -21.01 dB      2:54 05-What's the Use of Getting Sober (When You're Gonna Get Drunk Again)
DR14      -1.87 dB   -19.66 dB      4:10 06-Hey, Louis!
DR16      -1.07 dB   -21.00 dB      2:48 07-I Want You to Be My Baby
DR13      -1.72 dB   -19.22 dB      3:26 08-Is You Is or Is You Ain't My Baby?
DR14      -1.84 dB   -18.34 dB      2:51 09-Ain't Nobody Here but Us Chickens
DR15      -2.96 dB   -22.16 dB      5:02 10-Blue Light Boogie
DR15      -2.16 dB   -19.82 dB      2:48 11-Choo Choo Ch'boogie
DR15      -2.52 dB   -22.87 dB      4:46 12-Nobody Knows You When You're Down and Out
DR13      -6.14 dB   -21.71 dB      2:38 13-Schooldays
DR14      -2.69 dB   -20.57 dB      3:47 14-Buzz Me, Baby
DR14      -1.80 dB   -19.48 dB      3:27 15-Five Guys Named Moe
--------------------------------------------------------------------------------

Number of tracks:  15
Official DR value: DR15

Samplerate:        44100 Hz
Channels:          2
Bits per sample:   24
Bitrate:           1528 kbps
Codec:             FLAC
================================================================================
Any questions - support@pro-jazz.com. Есть вопросы - support@pro-jazz.com
11:45
272
Нет комментариев. Ваш будет первым!