Поиск

1953 Mongo Santamaria - CHANGO! (2019) {RevOla} [24-44,1]

1953 Mongo Santamaria - CHANGO! (2019) {RevOla} [24-44,1]
Стили:
Издатель (лейбл):
Битрейт аудио:
lossless
Треклист:

01 - Druma Kuyi 02:49
02 - Consejo Al Vive Bien 04:48
03 - Moforiborere 02:51
04 - Oromiso 03:17
05 - Congo Mania 07:55
06 - Margarito 02:47
07 - Caumbia 03:12
08 - Columbia 02:47
09 - Abacua 02:58
10 - Yroco 03:02
11 - Ochun 02:54
12 - Bembe Kinigua 03:15
13 - Chango 02:15
14 - Conga Callejera 02:15
15 - Meta 02:18
16 - Guaguanco 02:16
17 - Fiesta Abacua 08:31

Состав:
  • Mongo Santamaria

Afro-Cuban Drum Beaters:

  • Silvestre Mendez
  • Antar Daly
  • Carlos "Patato" Valdes
  • Julio Collazo
Доп. инфо:

Формат записи/Источник записи: [TR24][OF]
Издание: Remastered
Год издания/переиздания диска: 1953/2019
Издатель (лейбл): RevOla
Продолжительность: 01:00:10
Наличие сканов в содержимом раздачи: Нет

Контейнер: FLAC (*.flac)
Тип рипа: tracks
Разрядность: 24/44,1
Количество каналов: 2.0

Источник (релизер): Qobuz

Лог проверки качества
foobar2000 1.3.16 / Dynamic Range Meter 1.1.1
log date: 2019-01-20 23:40:17

--------------------------------------------------------------------------------
Analyzed: Mongo Santamaria / CHANGO!
--------------------------------------------------------------------------------

DR         Peak         RMS     Duration Track
--------------------------------------------------------------------------------
DR13      -2.87 dB   -19.84 dB      2:49 01-Druma Kuyi (Remastered)
DR13      -3.50 dB   -19.53 dB      4:48 02-Consejo Al Vive Bien (Remastered)
DR16      -1.61 dB   -20.08 dB      2:52 03-Moforiborere (Remastered)
DR14      -3.24 dB   -20.15 dB      3:17 04-Oromiso (Remastered)
DR15      -3.03 dB   -21.14 dB      7:55 05-Congo Mania (Remastered)
DR13      -2.62 dB   -19.06 dB      2:48 06-Margarito (Remastered)
DR13      -3.60 dB   -19.85 dB      3:12 07-Caumbia (Remastered)
DR13      -3.00 dB   -18.18 dB      2:48 08-Columbia (Remastered)
DR14      -4.31 dB   -20.47 dB      2:58 09-Abacua (Remastered)
DR11      -4.31 dB   -18.39 dB      3:03 10-Yroco (Remastered)
DR13      -4.19 dB   -19.29 dB      2:55 11-Ochun (Remastered)
DR12      -3.79 dB   -19.66 dB      3:16 12-Bembe Kinigua (Remastered)
DR14      -4.97 dB   -21.84 dB      2:16 13-Chango (Remastered)
DR13      -2.37 dB   -17.08 dB      2:16 14-Conga Callejera (Remastered)
DR13      -3.97 dB   -19.35 dB      2:18 15-Meta (Remastered)
DR16      -3.20 dB   -21.35 dB      2:16 16-Guaguanco (Remastered)
DR13      -2.76 dB   -18.46 dB      8:31 17-Fiesta Abacua (Remastered)
--------------------------------------------------------------------------------

Number of tracks:  17
Official DR value: DR14

Samplerate:        44100 Hz
Channels:          2
Bits per sample:   24
Bitrate:           645 kbps
Codec:             FLAC
================================================================================
По всем вопросам пишите личное сообщение пользователю M0p94ok.
14:03
637
Нет комментариев. Ваш будет первым!