Вы используете незарегистрированную версию компонента "Вкладки"!

Поиск

2020 Carol Welsman - Dance with Me {Justin Time} [24-48]

2020 Carol Welsman - Dance with Me {Justin Time} [24-48]
Стили:
Издатель (лейбл):
Битрейт аудио:
lossless
Доп. инфо:

Формат записи/Источник записи: [TR24][OF]
Наличие водяных знаков: Нет
Год издания: 2020
Продолжительность: 00:42:51
Наличие сканов в содержимом раздачи: Только обложка альбома
Контейнер: FLAC (*.flac)
Тип рипа: tracks
Разрядность: 24/48
Формат: PCM
Количество каналов: 2.0
Источник (релизер): highresaudio.com

Лог проверки качества
foobar2000 1.4.8 / Dynamic Range Meter 1.1.1
log date: 2020-08-01 06:05:57

--------------------------------------------------------------------------------
Analyzed: Carol Welsman / Dance with Me
--------------------------------------------------------------------------------

DR         Peak         RMS     Duration Track
--------------------------------------------------------------------------------
DR11      -0.40 dB   -12.01 dB      2:13 01-You and the Night and the Music
DR11      -0.40 dB   -12.11 dB      4:15 02-A Taste of Paradise
DR12      -0.40 dB   -13.10 dB      3:58 03-Femme Fatale (Amor Fugaz)
DR11      -0.40 dB   -12.19 dB      4:29 04-Dance with Me (Si Tú No Bailas Conmigo)
DR11      -0.40 dB   -12.81 dB      3:42 05-Time to Dance Cha Cha Cha (Ya Llegó La Hora)
DR12      -0.40 dB   -13.90 dB      3:35 06-Yesterday (Como Fue)
DR11      -0.40 dB   -12.40 dB      3:36 07-Island Lullaby
DR12      -0.48 dB   -14.11 dB      3:37 08-I Think of You (Hoy Como Ayer)
DR11      -0.40 dB   -12.55 dB      3:49 09-I Won't Dance
DR10      -0.40 dB   -12.16 dB      5:37 10-Revelations
DR13      -0.40 dB   -16.47 dB      4:04 11-Yesterday I Heard the Rain (Esta tarde Vi Llover)
--------------------------------------------------------------------------------

Number of tracks:  11
Official DR value: DR11
Samplerate:        48000 Hz
Channels:          2
Bits per sample:   24
Bitrate:           1549 kbps
Codec:             FLAC
================================================================================
Any questions - support@pro-jazz.com. Есть вопросы - support@pro-jazz.com
13:25
221
Нет комментариев. Ваш будет первым!