Вы используете незарегистрированную версию компонента "Вкладки"!

Поиск

2019 Eva Kess - Bassexperiment {Unit} [24-44,1]

2019 Eva Kess - Bassexperiment {Unit} [24-44,1]
Стили:
Дата издания диска:
18 января 2019
Носитель:
WEB
Формат:
PCM
Тип рипа:
tracks+.cue
Контейнер:
FLAC (*.flac)
Количество каналов:
2.0
Разрядность/ЧД:
24/44,1
Битрейт аудио:
lossless
Время звучания:
00:44:39
Наличие сканов:
web
Страна-производитель диска (релиза):
USA
Релизёр (источник):
M0p94ok
Лог проверки качества
foobar2000 1.5.5 / Dynamic Range Meter 1.1.1
log date: 2020-09-09 13:30:07

--------------------------------------------------------------------------------
Analyzed: Eva Kess / Bassexperiment
--------------------------------------------------------------------------------

DR         Peak         RMS     Duration Track
--------------------------------------------------------------------------------
DR9       -2.32 dB   -14.72 dB      2:12 01-It is the Joy Within
DR11      -2.46 dB   -16.94 dB      5:49 02-Everything Happens for a Reason
DR17      -0.47 dB   -24.13 dB      3:04 03-Love with the Imperfect Native
DR10      -1.00 dB   -16.77 dB      7:15 04-Change is the Only Constant
DR14       0.00 dB   -18.70 dB      3:58 05-Transforming Your Perception
DR9       -0.71 dB   -14.67 dB      2:17 06-The Other Person is You
DR13      -1.10 dB   -18.84 dB      4:02 07-Contra Diction
DR15      -0.96 dB   -24.02 dB      3:27 08-Ming
DR15      -5.74 dB   -28.27 dB      2:52 09-Surrender to the State of Effortlessness
DR14      -1.11 dB   -20.51 dB      2:55 10-Viewing Obstacles from a New Perspective
DR12      -2.59 dB   -23.71 dB      1:48 11-Developing Courage
DR12      -1.43 dB   -18.08 dB      1:23 12-Beginnering
DR11      -0.73 dB   -17.65 dB      3:43 13-How Do You Prepare for a Record Like This
--------------------------------------------------------------------------------

Number of tracks:  13
Official DR value: DR13

Samplerate:        44100 Hz
Channels:          2
Bits per sample:   24
Bitrate:           913 kbps
Codec:             FLAC
================================================================================
Any questions - support@pro-jazz.com. Есть вопросы - support@pro-jazz.com
13:57
223
Нет комментариев. Ваш будет первым!