Вы используете незарегистрированную версию компонента "Вкладки"!

Поиск

2015 Symphonic Jazz Orchestra - Looking Forward, Looking Back {Mack Avenue MAC1102} [24-96]

2015 Symphonic Jazz Orchestra - Looking Forward, Looking Back {Mack Avenue MAC1102} [24-96]
Дата записи диска:
19 января 2015
Место записи:
The Carpenter Performing Arts Center, California State University, Long Beach, USA
Издатель (лейбл):
Номер по каталогу:
MAC1102
Носитель:
WEB
Формат:
PCM
Тип рипа:
tracks+.cue
Контейнер:
FLAC (*.flac)
Количество каналов:
2.0
Разрядность/ЧД:
24/96
Битрейт аудио:
lossless
Время звучания:
00:56:19
Наличие сканов:
web
Страна-производитель диска (релиза):
USA
Релизёр (источник):
M0p94ok
Лог проверки качества
foobar2000 1.5.5 / Dynamic Range Meter 1.1.1
log date: 2020-09-09 12:28:19

--------------------------------------------------------------------------------
Analyzed: Symphonic Jazz Orchestra / Looking Forward, Looking Back
--------------------------------------------------------------------------------

DR         Peak         RMS     Duration Track
--------------------------------------------------------------------------------
DR14      -0.72 dB   -18.32 dB      5:16 01-Dark Wood: Bass Concerto for Mcbride - Movement I - Phase One
DR9       -0.72 dB   -14.32 dB      5:33 02-Dark Wood: Bass Concerto for Mcbride - Movement I - Phase Two
DR10      -0.72 dB   -13.62 dB      3:54 03-Dark Wood: Bass Concerto for Mcbride - Movement II - Phase Three
DR6       -0.72 dB   -11.03 dB      7:26 04-Dark Wood: Bass Concerto for Mcbride - Movement II - Phase Four
DR7       -0.76 dB   -11.76 dB      5:32 05-Symphonic Captain's Journey - Calm
DR7       -0.72 dB   -10.82 dB      8:01 06-Symphonic Captain's Journey - Storm
DR11      -0.74 dB   -16.23 dB      6:36 07-Rhapsody in Blue - Part I
DR13      -0.74 dB   -19.15 dB      7:06 08-Rhapsody in Blue - Part II
DR10      -0.74 dB   -14.57 dB      6:59 09-Rhapsody in Blue - Part III
--------------------------------------------------------------------------------

Number of tracks:  9
Official DR value: DR10

Samplerate:        96000 Hz
Channels:          2
Bits per sample:   24
Bitrate:           2680 kbps
Codec:             FLAC
================================================================================
Any questions - support@pro-jazz.com. Есть вопросы - support@pro-jazz.com
12:39
251
Нет комментариев. Ваш будет первым!