Вы используете незарегистрированную версию компонента "Вкладки"!

Поиск

2020 Cédric Gysler, Raphael Nick, Evaristo Pérez - Neptus {TCB The Montreux Jazz Label} [24-88,2]

2020 Cédric Gysler, Raphael Nick, Evaristo Pérez - Neptus {TCB The Montreux Jazz Label} [24-88,2]
Стили:
Битрейт аудио:
lossless
Доп. инфо:

• Формат записи | Источник записи: [TR24][OF]
• Наличие водяных знаков: Нет
• Год издания релиза: 2020
• Лейбл: TCB The Montreux Jazz Label
• Продолжительность: 01:00:58
• Источник: internet
• WEB релиз: ссылка
• Контейнер: FLAC (*.flac)
• Тип рипа: tracks
• Разрядность: 24/88,2
• Формат: PCM
• Количество каналов: 2.0
• Наличие сканов: front

Лог проверки качества
foobar2000 1.4.2 / Замер динамического диапазона (DR) 1.1.1
Дата отчёта:  2020-03-12 09:47:29

--------------------------------------------------------------------------------
Анализ:   Gysler | Pérez | Nick / Neptus
--------------------------------------------------------------------------------

DR         Пики         RMS           Продолжительность трека
--------------------------------------------------------------------------------
DR13      -0.25 дБ   -16.20 дБ      5:43 01-Iris
DR9       -0.12 дБ   -12.16 дБ      7:05 02-Sonntag Morgen
DR12      -0.23 дБ   -15.36 дБ      6:03 03-Brise
DR13      -0.58 дБ   -17.75 дБ      5:32 04-Ballade du moment
DR12      -0.19 дБ   -15.30 дБ      1:38 05-Intro Tanzbär
DR11      -0.19 дБ   -14.12 дБ      6:15 06-Tanzbär
DR15      -0.21 дБ   -18.54 дБ      3:17 07-Neptus
DR10      -0.08 дБ   -12.82 дБ      6:11 08-Abfahrt
DR14      -3.36 дБ   -23.07 дБ      2:05 09-Imp
DR11      -0.23 дБ   -14.19 дБ      6:40 10-Salted Grass
DR11      -0.19 дБ   -14.09 дБ      4:25 11-Ayin
DR12      -0.22 дБ   -15.93 дБ      6:09 12-Mountain Walk
--------------------------------------------------------------------------------

Количество треков: 12
Реальные значения DR: DR12

Частота:   88200 Гц
Каналов:   2
Разрядность:   24
Битрейт:   2425 кбит/с
Кодек:   FLAC
================================================================================
Any questions - support@pro-jazz.com. Есть вопросы - support@pro-jazz.com
22:26
287
Нет комментариев. Ваш будет первым!