Поиск

2020 Ibrahim Electric - Time Machine {Stunt} [24-96]

2020 Ibrahim Electric - Time Machine {Stunt} [24-96]
Стили:
Издатель (лейбл):
Битрейт аудио:
lossless
Треклист:

◈ 01 - Wheel Of Fortune (00:02:59)
◈ 02 - Bootnick (00:03:44)
◈ 03 - Disco Mystique (00:03:46)
◈ 04 - Manic Zigaman (00:04:24)
◈ 05 - Bad Standing (00:04:06)
◈ 06 - Hip Star (00:04:40)
◈ 07 - Tikki (00:03:08)
◈ 08 - Cowboyman (00:03:16)
◈ 09 - Highlander 74 (00:03:41)
◈ 10 - Danse Klavs (00:04:49)

Доп. инфо:

• Формат записи | Источник записи: [TR24][OF]
• Наличие водяных знаков: Нет
• Год издания релиза: 2020
• Продолжительность: 00:38:35
• Источник: internet
• WEB релиз: ссылка
• Контейнер: FLAC (*.flac)
• Тип рипа: tracks
• Разрядность: 24/96
• Формат: WAV (flac.ape.wv)
• Количество каналов: 2.0
• Наличие сканов: front
 

Лог проверки качества
foobar2000 1.4.2 / Замер динамического диапазона (DR) 1.1.1
Дата отчёта:  2020-03-13 10:01:38

--------------------------------------------------------------------------------
Анализ:   Ibrahim Electric / Time Machine
--------------------------------------------------------------------------------

DR         Пики         RMS           Продолжительность трека
--------------------------------------------------------------------------------
DR9       -0.21 дБ    -9.79 дБ      2:59 01-Wheel Of Fortune
DR11      -0.21 дБ   -12.24 дБ      3:45 02-Bootnick
DR7       -0.21 дБ    -7.99 дБ      3:46 03-Disco Mystique
DR8       -0.21 дБ   -10.52 дБ      4:25 04-Manic Zigaman
DR7       -0.21 дБ    -8.60 дБ      4:07 05-Bad Standing
DR11      -0.22 дБ   -12.79 дБ      4:41 06-Hip Star
DR8       -0.21 дБ   -10.11 дБ      3:09 07-Tikki
DR8       -0.21 дБ    -8.92 дБ      3:17 08-Cowboyman
DR9       -0.21 дБ   -10.12 дБ      3:41 09-Highlander 74
DR10      -0.21 дБ   -12.43 дБ      4:50 10-Danse Klavs
--------------------------------------------------------------------------------

Количество треков: 10
Реальные значения DR: DR9

Частота:   96000 Гц
Каналов:   2
Разрядность:   24
Битрейт:   3110 кбит/с
Кодек:   FLAC
================================================================================
Приватный:
Нет (DHT включён)
Размер:
871.77 Мб (914,113,387 байт) » файлов: 11
Участники:
2 раздают, 1 качают (3 участников всего)
Внешние участники:
3 раздают, 1 качают (4 участников всего) [ Обновить ]
Скорость:
0/c 968.68 Кб/c
No seeders - write a personal message to user M0p94ok. Нет сидеров - пишите личное сообщение пользователю M0p94ok.
07:15
42
Нет комментариев. Ваш будет первым!