Вы используете незарегистрированную версию компонента "Вкладки"!

Поиск

1960 Quincy Jones - I Dig Dancers! (2019) {RevOla} [24-44,1]

1960 Quincy Jones - I Dig Dancers! (2019) {RevOla} [24-44,1]
Стили:
Дата записи диска:
27 февраля 1960
Место записи:
Bell Sound Studios, NYC; Pathé-Magellan Studio, Paris
Издатель (лейбл):
Носитель:
WEB
Формат:
PCM
Тип рипа:
tracks+.cue
Контейнер:
FLAC (*.flac)
Количество каналов:
2.0
Разрядность/ЧД:
24/44,1
Битрейт аудио:
lossless
Время звучания:
00:33:12
Наличие сканов:
web
Страна-производитель диска (релиза):
USA
Релизёр (источник):
M0p94ok
Лог проверки качества
foobar2000 1.3.16 / Dynamic Range Meter 1.1.1
log date: 2019-01-05 18:25:21

--------------------------------------------------------------------------------
Analyzed: Quincy Jones / I Dig Dancers!
--------------------------------------------------------------------------------

DR         Peak         RMS     Duration Track
--------------------------------------------------------------------------------
DR12      -3.32 dB   -19.77 dB      2:18 01-Pleasingly Plump (Remastered)
DR12      -3.11 dB   -18.65 dB      6:21 02-G'Wan Train (Remastered)
DR13      -3.19 dB   -20.04 dB      2:50 03-Moonglow (Remastered)
DR11      -3.66 dB   -19.50 dB      3:41 04-Tone Poem (Remastered)
DR12      -3.71 dB   -18.67 dB      2:31 05-You Turned the Tables on Me (Remastered)
DR13      -3.98 dB   -20.43 dB      2:42 06-Chinese Checkers (Remastered)
DR12      -4.31 dB   -21.03 dB      3:14 07-Our Love is Here to Stay (Remastered)
DR12      -3.65 dB   -21.23 dB      4:35 08-The Midnight Sun Will Never Set (Remastered)
DR13      -3.08 dB   -20.51 dB      2:32 09-Trouble on My Mind (Remastered)
DR13      -2.86 dB   -21.13 dB      2:35 10-A Sunday Kind of Love (Remastered)
--------------------------------------------------------------------------------

Number of tracks:  10
Official DR value: DR12

Samplerate:        44100 Hz
Channels:          2
Bits per sample:   24
Bitrate:           1457 kbps
Codec:             FLAC
================================================================================
Any questions - support@pro-jazz.com. Есть вопросы - support@pro-jazz.com
21:52
253
Нет комментариев. Ваш будет первым!