Поиск

2020 Bucky Pizzarelli - The Early Years {2xHD} [DSD64]

2020 Bucky Pizzarelli - The Early Years {2xHD} [DSD64]
Стили:
Издатель (лейбл):
Носитель:
WEB
Формат:
DSD
Тип рипа:
tracks
Контейнер:
DSF (*.dsf)
Количество каналов:
2.0
Разрядность/ЧД:
64 (2,8 MHz/1 Bit)
Битрейт аудио:
lossless
Время звучания:
01:06:36
Наличие сканов:
буклет pdf

Треклист:

01. Green Guitar Blues
02. Tangerine
03. Satin Doll
04. Medley: Cry Me A River - Girl Talk
05. Goodbye
06. I Don't Know How To Love Him
07. What Are You Doing The Rest Of Your Life?
08. Medley: Breakfast at Tiffany's - Dreamsville
09. The Summer Knows (Theme from Summer of '42)
10. Cherokee
11. Invitation
12. Do Nothing 'Till You Hear From Me
13. Medley: Isn't It Romantic?
14. Nola
15. Blues Chromatique
16. (Back Home in) Indiana
17. Isfahan
18. My Ship

Состав:
Доп. инфо:

2020 NativeDSD Номинант на звание "Альбом года" - соло-гитара

Баки Пиццарелли был легендарным джазовым гитаристом.  Он был отцом джазового гитариста Джона Пиццарелли и контрабасиста Мартина Пиццарелли. Он работал на NBC в качестве сотрудника Дика Каветта (1971) и на ABC вместе с Бобби Розенгарденом в (1952). В список музыкантов, с которыми он сотрудничал, входят Бенни Гудман, Лес Пол, Стефан Граппелли и Антонио Карлос Жобим. В качестве источников влияния Пиццарелли называл Джанго Рейнхардта, Фредди Грина и Джорджа Ван Эпса.

Bucky Pizzarelli: The Early Years - это двойной альбом, включающий два его самых ранних альбома Green Guitar Blues (треки 1-9) и The Cafe Pierre Trio (треки 10-18) с прекрасной коллекцией стандартов.  В альбом вошли Tangerine Джонни Мерсера, Satin Doll Дюка Эллингтона, Билли Стрэйхорна и Джонни Мерсера, Cry Me A River и Girl Talk Нила Хефти и Бобби Трупа, I Don't Know How To Love Him Эндрю Ллойда Уэббера и Тима Райса, What Are You Doing The Rest of Your Life Мишеля Леграна и Мэрилин и Алана Бергманов, Breakfast at Tiffany's и Dreamsville Генри Манчини, The Summer Knows (Theme From Summer of '42) Мэрилин и Алана Бергманов и многие другие.

Альбом представляет собой аналоговый перевод с ленты на DXD, выполненный Рене Лафламмом в формате 2xHD с мастер-ленты альбома от Jazzology Records.  Он представлен во всех наших битрейтах Stereo DSD, включая эксклюзивное издание Stereo DSD 512, созданное мастеринг-инженером NativeDSD Томом Колфилдом с использованием инструментов мастеринга Signalyst HQ Player Pro 4 и его модуляторов "EC".

Лог проверки качества
foobar2000 1.6.8 / Dynamic Range Meter 1.1.1
log date: 2022-02-28 19:55:25
--------------------------------------------------------------------------------
Analyzed: Bucky Pizzarelli / Bucky Pizzarelli - The Early Years
--------------------------------------------------------------------------------
DR         Peak         RMS     Duration Track
--------------------------------------------------------------------------------
DR14      -9.71 dB   -26.11 dB      3:33 01-Green Guitar Blues
DR14     -10.06 dB   -28.19 dB      2:15 02-Tangerine
DR14     -11.78 dB   -28.10 dB      3:28 03-Satin Doll
DR12     -11.08 dB   -26.02 dB      3:16 04-Medley: Cry Me River-Girl Talk
DR12     -10.93 dB   -26.40 dB      2:16 05-Goodbye
DR12     -11.02 dB   -26.43 dB      2:11 06-I don't Know How to Love Him
DR10     -14.37 dB   -27.99 dB      2:38 07-What Are You Doing the Rest of Your Life
DR14     -10.32 dB   -26.10 dB      3:14 08-Medley: Breakfast at Tiffany's -Dreamsville
DR12     -13.01 dB   -29.35 dB      2:04 09-The summer knows
DR14      -6.66 dB   -24.55 dB      4:53 10-Cherokee
DR12     -10.68 dB   -25.66 dB      5:33 11-Invitation
DR16      -6.95 dB   -27.54 dB      5:36 12-Do Nothing 'till You Hear from Me
DR12     -11.41 dB   -27.78 dB      5:53 13-Medley: Isn't It Romantic + Penthouse+ East of the Sun+ What Is there to say
DR11     -10.71 dB   -24.97 dB      3:27 14-Nola
DR13      -8.44 dB   -26.85 dB      4:54 15-Blues Chromatique
DR12      -9.60 dB   -24.63 dB      4:35 16-(Back Home in) Indiana
DR13     -12.85 dB   -28.34 dB      4:05 17-Isfahan
DR12     -12.37 dB   -28.17 dB      2:47 18-My Ship
--------------------------------------------------------------------------------
Number of tracks:  18
Official DR value: DR13
Samplerate:        2822400 Hz / PCM Samplerate: 88200 Hz
Channels:          2
Bits per sample:   1
Bitrate:           5645 kbps
Codec:             DSD64
================================================================================
20:16
307
Нет комментариев. Ваш будет первым!