Поиск

2013 Quadro Nuevo & NDR Pops Orchestra - End Of The Rainbow (2015) {Fine Music} [DST64 ISO]

2013 Quadro Nuevo & NDR Pops Orchestra - End Of The Rainbow (2015) {Fine Music} [DST64 ISO]
Стили:
Дата записи диска:
6 октября - 7 октября 2011
Место записи:
Grosser Sendesaal of the NDR Hanover, Germany
Номер по каталогу:
FMSA61722
Носитель:
SACD
Формат:
DST
Тип рипа:
image
Контейнер:
ISO (*.iso)
Количество каналов:
2.0
Разрядность/ЧД:
64 (2,8 MHz/1 Bit)
Битрейт аудио:
lossless
Время звучания:
01:16:35
Наличие сканов:
только обложка

01. Que reste-t-Il de nos amours  04:14
02. Prinzessin Josefina  06:44
03. Canzone della strada  07:36
04. Du Gehst Durch All Meine Träume  05:26
05. La Cumparsita  04:08
06. Die Reise nach Batumi  05:12
07. Aventure  07:22
08. Miserlou  05:01
09. Ack Värmeland Du Sköna  06:16
10. Locanda del sole  05:22
11. Mohn  09:12
12. Tango del mare  04:19
13. Oblivion  06:12

Состав:
  •     Accordion, Bandoneon – Andreas Hinterseher
  •     Bass – Albert Sommer, Flora Bartanyi, Georg Elsas, Jürgen Normann
  •     Bass, Percussion – D.D. Lowka
  •     Bassoon – Antonia Zimmermann, Uwe Grothaus
  •     Cello – Carsten Jaspert, Christian Edelmann, Martha Bijlsma, Nikolai Schneider, Sebastian Maas, Wulf Ebert
  •     Clarinet – Klaus Kirschvink, Ulf-Guido Schäfer
  •     Conductor – Enrique Ugarte
  •     Engineer [Sound] – Björn Brigsne
  •     Flute – Christoph Renz, Sabine Bleier, Sarenka Siberski
  •     Harp – Evelyn Huber
  •     Horn – Henrich Schäfer, Johannes Otter, Margje Imandt, Joh.-Theodor Wiemes*
  •     Mastered By – Dieter Pimiskern
  •     Mixed By – Philipp Winter
  •     Oboe – Kerstin Ingwersen, Kiyoshi Matsubara
  •     Percussion – Erich Trog, Johannes Doll, Oliver Arlt, Wolfgang Schneider
  •     Producer – Matthias Ilkenhans
  •     Saxophone, Clarinet, Mandolin, Psaltery – Mulo Francel
  •     Sound Designer, Edited By – Hans-Ulrich Bastin
  •     Timpani – Klaus Reda
  •     Trombone – Anatoli Jagodin, Christian Heilmann (2), Gerhard Zolnhofer
  •     Trumpet – Andreas Heusing, Jörn Schulze, Wilhelm Kammerer
  •     Tuba – Peter Stadlhofer
  •     Viola – Anna Lewis, Bartosz Sotomski, Christian Pohl, Harald Schröter, Lena Thies, Magdalena Helpa, Moshe Ben Dor, Reinald Ross
  •     Violin – Angelina Nalbantova, Bogdan Dragus, Christian Heinrich (2), Emre Tamer, Friederike Kosak, Hiroto Yashima, Johannes Meyer (2), Juan Du, Julie Tetens, Katrin Strobelt, Kazuo Muranaka, Kristina Altunjan, Ladislaus Kosak, Laurent Plettner, Michael Pohl (2), Rudolf Theby, Sabrina-Vivian Höpcker, Theresia Vit, Torsten Jahnicke*, Viola Mönkemeyer, Vladimir Lasov, Volker Mutschler
Лог проверки качества
foobar2000 1.6.8 / Dynamic Range Meter 1.1.1
log date: 2022-01-05 16:30:40
--------------------------------------------------------------------------------
Analyzed: Quadro Nuevo & NDR Pops Orchestra / End of the rainbow
--------------------------------------------------------------------------------
DR         Peak         RMS     Duration Track
--------------------------------------------------------------------------------
DR12      -6.41 dB   -22.93 dB      4:10 01-Que reste-t-il de nos amours
DR13      -6.67 dB   -24.92 dB      6:42 02-Prinzessin Josefina
DR12      -6.19 dB   -22.26 dB      7:32 03-Canzone della strada
DR12      -6.25 dB   -22.28 dB      5:23 04-Du gehst durch all meine Träume
DR11      -6.37 dB   -21.48 dB      4:03 05-La Cumparsita
DR9       -6.08 dB   -19.13 dB      5:14 06-Die Reise nach Batumi
DR10      -6.11 dB   -20.32 dB      7:21 07-Aventure
DR10      -5.97 dB   -20.35 dB      4:59 08-Miserlou
DR10      -6.48 dB   -21.29 dB      6:15 09-Ack Värmeland du sköna
DR12      -6.15 dB   -22.44 dB      5:20 10-Locando del Sole
DR12      -6.65 dB   -24.95 dB      9:10 11-Mohn
DR11      -6.15 dB   -21.94 dB      4:20 12-Tango del Mare
DR11      -6.57 dB   -22.70 dB      6:07 13-Oblivion
--------------------------------------------------------------------------------
Number of tracks:  13
Official DR value: DR11
Samplerate:        2822400 Hz / PCM Samplerate: 88200 Hz
Channels:          2
Bits per sample:   1
Bitrate:           5645 kbps
Codec:             DST64
================================================================================
Приватный:
Нет (DHT включён)
Размер:
1.20 Гб (1,290,460,348 байт) » файлов: 5
Участники:
0 раздают, 0 качают (0 участников всего)
Внешние участники:
11 раздают, 4 качают (15 участников всего) [ Обновить ]
14:50
568
Нет комментариев. Ваш будет первым!