Поиск

2022 Tokunbo - Golden Days {in-akustik} [24-96]

2022 Tokunbo - Golden Days {in-akustik} [24-96]
Стили:
Место записи:
BluHouseStudio & Boxhornstudio
Дата издания диска:
25 февраля 2022
Издатель (лейбл):
Носитель:
WEB
Формат:
PCM
Тип рипа:
tracks
Контейнер:
FLAC (*.flac)
Количество каналов:
2.0
Разрядность/ЧД:
24/96
Битрейт аудио:
lossless
Время звучания:
00:39:36
Наличие сканов:
только обложка

01. Golden Days  03:53
02. Home Again  04:06
03. Forgive  03:56
04. Near & Far  03:11
05. Hey, Island  02:55
06. Curtains  03:33
07. See You Fly  03:32
08. On the Fence  03:27
09. Ray   03:29
10. House of Cards  03:47
11. Miles Away  03:47

Состав:
  • TOKUNBO, lead vocals, backing vocals
  • Ulrich Rode, acoustic & electric guitars, pedal steel, dobro, banjo, ukulele, mandolin, keyboards, backing vocals
  • Christian Flohr, electric bass
  • Matthias ‘Maze’ Meusel, drums, percussion & programming, keyboards, piano
  • Anne de Wolff, violin, viola, cello, trombone, vibraphone, backing vocals
  • Axel Müller, clarinet, flute
  • Engineered by Ulrich Rode & Matthias ‘Maze’ Meusel
  • Mix & Mastering by Marc Ebermann at Music Factory
Лог проверки качества
foobar2000 1.6.6 / Dynamic Range Meter 1.1.1
log date: 2022-02-25 18:27:56
--------------------------------------------------------------------------------
Analyzed: Tokunbo / Golden Days
--------------------------------------------------------------------------------
DR         Peak         RMS     Duration Track
--------------------------------------------------------------------------------
DR10      -0.30 dB   -11.97 dB      3:56 01-Golden Days
DR9       -0.30 dB   -10.75 dB      4:06 02-Home Again
DR8       -0.30 dB    -9.98 dB      3:56 03-Forgive
DR10      -0.30 dB   -12.48 dB      3:11 04-Near & Far
DR7       -0.31 dB    -9.09 dB      2:54 05-Hey, Island
DR8       -0.30 dB   -10.75 dB      3:33 06-Curtains
DR8       -0.32 dB    -9.78 dB      3:34 07-See You Fly
DR9       -0.30 dB   -11.13 dB      3:27 08-On the Fence
DR9       -0.31 dB   -11.57 dB      3:30 09-Ray
DR9       -0.30 dB   -11.32 dB      3:47 10-House of Cards
DR9       -0.30 dB   -11.75 dB      3:48 11-Miles Away
--------------------------------------------------------------------------------
Number of tracks:  11
Official DR value: DR9
Samplerate:        96000 Hz
Channels:          2
Bits per sample:   24
Bitrate:           2809 kbps
Codec:             FLAC
================================================================================
14:28
450
Нет комментариев. Ваш будет первым!