Поиск

2021 Andreas Toftemark Quartet - A New York Flight {April Records & Music Co.} [24-44.1]

2021 Andreas Toftemark Quartet - A New York Flight {April Records & Music Co.} [24-44.1]
Дата записи диска:
август - сентябрь 2020
Место записи:
The Royal Danish Academy of Music, Copenhagen
Дата издания диска:
11 июня 2021
Носитель:
WEB
Формат:
PCM
Тип рипа:
tracks
Контейнер:
FLAC (*.flac)
Количество каналов:
2.0
Разрядность/ЧД:
24/44,1
Битрейт аудио:
lossless
Наличие сканов:
только обложка

01. A New York Flight (07:32)
02. Blue And Sentimental (05:34)
03. Love Me or Leave Me (07:19)
04. 2223 (07:15)
05. Autumn in New York (08:57)
06. I'm a Fool to Want You (05:57)

Состав:
  • Andreas Toftemark — Sax
  • Felix Moseholm — Bass
  • Calle Brickman – Piano
  • Andreas Svendsen — Drums
  • Produced by Henrik Holst Hansen & Andreas Toftemark
  • Mastered by Henrik Holst Hansen
Лог проверки качества
foobar2000 1.2.2 / Замер динамического диапазона (DR) 1.1.1
Дата отчёта:  2022-02-28 22:01:11
--------------------------------------------------------------------------------
Анализ:   Andreas Toftemark Quartet / A New York Flight
--------------------------------------------------------------------------------
DR         Пики         RMS           Продолжительность трека
--------------------------------------------------------------------------------
DR9       -0.80 дБ   -13.57 дБ      7:33 ?-A New York Flight
DR9       -0.80 дБ   -13.22 дБ      5:34 ?-Blue And Sentimental
DR9       -0.80 дБ   -13.30 дБ      7:19 ?-Love Me or Leave Me
DR8       -0.80 дБ   -11.50 дБ      7:15 ?-2223
DR11      -0.80 дБ   -15.22 дБ      8:57 ?-Autumn in New York
DR8       -0.80 дБ   -12.01 дБ      5:57 ?-I'm a Fool to Want You
--------------------------------------------------------------------------------
Количество треков: 6
Реальные значения DR: DR9
Частота:   44100 Гц
Каналов:   2
Разрядность:   24
Битрейт:   1522 кбит/с
Кодек:   FLAC
================================================================================
21:34
524
Нет комментариев. Ваш будет первым!