Поиск

2020 Anja Lechner & François Couturier - Lontano {ECM} [24-96]

2020 Anja Lechner & François Couturier - Lontano {ECM} [24-96]
Дата издания диска:
16 октября 2020
Издатель (лейбл):
Номер по каталогу:
ECM 2682
Битрейт аудио:
lossless

Треклист:

01. Praeludium (01:42)
02. Arpeggio (01:13)
03. Gratitude (02:45)
04. Alfonsina y el mar (04:56)
05. Flow (06:20)
06. Memory of a Melody (05:04)
07. Solar I (01:20)
08. Solar II (01:05)
09. Shadow (01:18)
10. Miniature 27 (04:55)
11. Hymne (01:38)
12. Vague / E la nave va (06:58)
13. Lontano (02:35)
14. Tryptic (07:45)
15. Prélude en berceuse (03:14)
16. Postludium (02:05)

Состав:
  • Piano – François Couturier
  • Violoncello – Anja Lechner
Доп. инфо:

Формат записи/Источник записи: [TR24][OF]
Наличие водяных знаков: Нет
Год издания/переиздания диска: 2020
Продолжительность: 54:53
Наличие сканов в содержимом раздачи: Буклет PDF

Контейнер: FLAC (*.flac)
Тип рипа: tracks
Разрядность: 24/96
Формат: PCM
Количество каналов: 2.0

Источник (релизер): https://www.prostudiomasters.com/album/page/71800

Лог проверки качества
foobar2000 1.6 / Dynamic Range Meter 1.1.1
log date: 2020-10-16 01:07:09

--------------------------------------------------------------------------------
Analyzed: Anja Lechner / Lontano
--------------------------------------------------------------------------------

DR         Peak         RMS     Duration Track
--------------------------------------------------------------------------------
DR16      -8.19 dB   -30.97 dB      1:43 01-Praeludium
DR10      -5.98 dB   -19.79 dB      1:14 02-Arpeggio
DR14      -3.68 dB   -26.41 dB      2:45 03-Gratitude
DR15      -0.73 dB   -21.18 dB      4:56 04-Alfonsina y el mar
DR13      -1.70 dB   -21.26 dB      6:20 05-Flow
DR12      -7.40 dB   -26.98 dB      5:04 06-Memory of a Melody
DR12      -0.70 dB   -16.81 dB      1:20 07-Solar I
DR13      -0.70 dB   -16.32 dB      1:05 08-Solar II
DR14      -6.98 dB   -26.05 dB      1:18 09-Shadow
DR13      -5.53 dB   -25.46 dB      4:56 10-Miniature 27
DR14      -8.49 dB   -29.81 dB      1:39 11-Hymne
DR13      -2.73 dB   -20.75 dB      6:58 12-Vague / E la nave va
DR12      -9.27 dB   -26.89 dB      2:35 13-Lontano
DR13      -0.72 dB   -18.10 dB      7:46 14-Tryptic
DR14      -5.66 dB   -24.25 dB      3:15 15-Prélude en berceuse
DR13     -11.28 dB   -30.09 dB      2:05 16-Postludium
--------------------------------------------------------------------------------

Number of tracks:  16
Official DR value: DR13

Samplerate:        96000 Hz
Channels:          2
Bits per sample:   24
Bitrate:           2302 kbps
Codec:             FLAC
================================================================================
По всем вопросам пишите личное сообщение пользователю M0p94ok.
18:58
276
Нет комментариев. Ваш будет первым!